Ссылка на приватное зеркало нашего сайта всего за 1$. Внимание количество ограничено!!!

2 сезон

iTunes

1 сезон

1

2 сезон

2 сезон

iTunes

1 сезон

RePack

30

Ultimate

ВАЖНО

ИГРА 18+

pack

RePack

MK11
pack

Забери бонус

RePack

jed

!!Акция!!

Alien_Rage

RePack

fifa19

RePack

Assassins Creed: Odyssey

RePack

NEED FOR SPEED™ PAYBACK

4 сезон

9 сезон

Бесстыжие 9 сезон

Все сериалы

все сериалы на PB.wtf

RePack

FAR CRY 5
  

Отжиг / The Get Down / Сезон: 1 / Серии 1-11 из 11 (Эдвард Бьянчи / Edward Bianchi, Баз Лурман / Baz Luhrmann, Эндрю Бернштейн / Andrew Bernstein) [2016, США, мюзикл, драма, музыка, WEBRip 720p] MVO [BaibaKo] pb.wtf

Отжиг через торрент pb.wtf

Размер: 32 GB | Добавлен: 3 года 7 мес. назад | Торрент скачан:11 раз
Скачать  

10-04-2017 00:46 Отжиг Скачать торрент  


Отжиг / The Get Down

«Править миром»


  • Год выпуска: 2016
  • Страна: США
  • Жанр: мюзикл, драма, музыка
  • Продолжительность: ~ 00:57:00 (Серия)
  • Перевод: Профессиональный многоголосый [BaibaKo]
  • Режиссер: Эдвард Бьянчи / Edward Bianchi, Баз Лурман / Baz Luhrmann, Эндрю Бернштейн / Andrew Bernstein
  • В ролях:

    Джастис Смит (Ezekiel), Шамеик Мур (Shaolin Fantastic), Эрисен Ф. Гардиола (Mylene Cruz), Скайлан Брукс (Ra-Ra), Тримейн Браун мл. (Boo-Boo), Яхья Абдул-Марин II (Cadillac), Джимми Смитс (Francisco «Papa Fuerte» Cruz), Stefanée Martin (Yolanda Kipling), Shyrley Rodriguez (Regina), Джанкарло Эспозито (Pastor Ramon Cruz), Мамуду Ати (Grandmaster Flash), Лилиас Уайт (Fat Annie)


  • Нью-йоркская сага о бронкской шпане, перевернувшей музыкальный ландшафт города и всего мира. Нью-Йорк 1970-х видится в самых мрачных тонах — бедный, жестокий, сломленный город, который берёт штурмом группа подростков из Южного Бронкса, вооружённых только баллончиками с краской, отвязными танцами и бойкими речами. Их путь лежит от родных трущоб к богемным кварталам Манхэттена, от культовых клубов CBGB и «Студия 54» к только построенным башням-близнецам Всемирного торгового центра. Этот сериал о том, как во времена национального банкротства молодёжь дала рождение новой музыке — панку, диско и хип-хопу.
  • Рейтинг:



  • Качество: WEBRip 720p
  • Формат: :MKV
  • Видео кодек: AVC
  • Аудио кодек: AC3
  • Видео: 1280x720 (16:9), 7932 kbps, 23,976 fps, 0,359 bpp
  • Аудио №1: русский / 5.1 / 48 kHz / 384 kbps |[BaibaKo]|
  • Аудио №2: английский / 5.1 / 48 kHz / 384 kbps

    Внимание! Раздача ведётся путём добавления новых серий; при каждом добавлении создаётся новый торрент. Чтобы начать докачку новой серии, пользователям необходимо сделать следующее:
    (1) остановить скачивание,
    (2) удалить старый торрент у себя из клиента (старые серии удалять не надо),
    (3) скачать новый торрент и запустить его у себя в клиенте вместо старого, при этом указать клиенту путь в старую папку куда и должно происходить скачивание новых серий.
    Ваш клиент при этом должен произвести хеширование (проверку) старой папки (если не производит сам - помогите ему сделать это), и будет докачивать только те серии которых у вас ещё нет. Старые серии при этом не удаляются, а продолжают раздаваться!
    Eсли вы уже удалили старые серии, то предотвратить повторную закачку старых серий можно, отжав галочку в соответствующих местах при запуске нового торрента. По возможности, желательно не удалять старые серии как можно дольше чтобы релизёр не столько продолжал раздавать старые серии, а смог сконцентрироваться на новых.

    General
    Unique ID : 187459885941024906901608051590140926234 (0x8D0775F50E99AEE99604BCDA40AA191A)
    Complete name : K:\Отжиг (The Get Down)\The.Get.Down.s01e07.HD720p.WEBRip.Rus.Eng.BaibaKo.tv.mkv
    Format : Matroska
    Format version : Version 4 / Version 2
    File size : 2.93 GiB
    Duration : 48 min
    Overall bit rate : 8 703 kb/s
    Encoded date : UTC 2017-04-09 01:29:11
    Writing application : mkvmerge v10.0.0 ('To Drown In You') 64bit
    Writing library : libebml v1.3.4 + libmatroska v1.4.5

    Video
    ID : 1
    Format : AVC
    Format/Info : Advanced Video Codec
    Format profile : High@L4.1
    Format settings, CABAC : Yes
    Format settings, ReFrames : 9 frames
    Codec ID : V_MPEG4/ISO/AVC
    Duration : 48 min
    Bit rate : 7 933 kb/s
    Width : 1 280 pixels
    Height : 720 pixels
    Display aspect ratio : 16:9
    Frame rate mode : Constant
    Frame rate : 23.976 (23976/1000) FPS
    Original frame rate : 23.976 (24000/1001) FPS
    Color space : YUV
    Chroma subsampling : 4:2:0
    Bit depth : 8 bits
    Scan type : Progressive
    Bits/(Pixel*Frame) : 0.359
    Stream size : 2.67 GiB (91%)
    Default : No
    Forced : No

    Audio #1
    ID : 2
    Format : AC-3
    Format/Info : Audio Coding 3
    Mode extension : CM (complete main)
    Format settings, Endianness : Big
    Codec ID : A_AC3
    Duration : 48 min
    Bit rate mode : Constant
    Bit rate : 384 kb/s
    Channel(s) : 6 channels
    Channel positions : Front: L C R, Side: L R, LFE
    Sampling rate : 48.0 kHz
    Frame rate : 31.250 FPS (1536 spf)
    Compression mode : Lossy
    Delay relative to video : 16 ms
    Stream size : 132 MiB (4%)
    Language : Russian
    Default : Yes
    Forced : No

    Audio #2
    ID : 3
    Format : AC-3
    Format/Info : Audio Coding 3
    Mode extension : CM (complete main)
    Format settings, Endianness : Big
    Codec ID : A_AC3
    Duration : 48 min
    Bit rate mode : Constant
    Bit rate : 384 kb/s
    Channel(s) : 6 channels
    Channel positions : Front: L C R, Side: L R, LFE
    Sampling rate : 48.0 kHz
    Frame rate : 31.250 FPS (1536 spf)
    Compression mode : Lossy
    Delay relative to video : 16 ms
    Stream size : 132 MiB (4%)
    Language : English
    Default : No
    Forced : No



    Скриншоты:
    скриншот   скриншот   скриншот   скриншот   скриншот   скриншот   скриншот  
    скриншот  

    Раздача ведётся путём добавления новых серий. Добавлена 11 серия (11.04.2017).Просьба перекачать торрент файл.

    pb.wtf



  • Скачать Отжиг через торрент http://pic1.kartinco.top/images/11/nudmd.jpg Скачать фильм Отжиг через торрент бесплантно в хорошем качестве qw.png Нью-йоркская сага о бронкской шпане, перевернувшей музыкальный ландшафт города и всего мира. Нью-Йорк 1970-х видится в самых ... 10 10 3
    Info! Золотая раздача, скачанное не засчитывается.
    Торрент: Зарегистрирован [2017-04-22 04:24] · скачан: 11 раз
    Статус: √ проверено
    Размер: 32 GB
    Как cкачать? Как скачать Отжиг через торрент | qTorrent

    % Раздел Тема Автор DL S | L
    Зарубежные сериалы [ 12.62 GB ] Отжиг / The Get Down / Сезон: 1 / Серии 1-11 из 11 [2016 мюзикл музыка WEBRip-AVC] MVO [BaibaKo] GEKADOL Скачать
    1 | 0

    28-11-2019 20:33  

    Отключить всю рекламу на сайте

      Дорогой пользователь! Огромная просьба, поблагодарите релизера, оцените раздачу и оставьте свои комментарий, если Вы скачали Отжиг через торрент бесплатно! Внесите свою лепту в развитие PiratBit!
      Комментировать посты могут только пользователи прошедшие не сложную регистрацию
      Показать сообщения:    

      Отжиг через торрент
      Скачать бесплатно Отжиг
      Отжиг скачать торрент
      Отжиг смотреть онлайн
      Cкачать фильм Отжиг бесплатно
      Отжиг скачать торрент в хорошем качестве
      Отжиг смотреть онлайн бесплатно в хорошем качестве


      Вы не можете начинать темы
      Вы не можете отвечать на сообщения
      Вы не можете редактировать свои сообщения
      Вы не можете удалять свои сообщения
      Вы не можете голосовать в опросах
      Вы не можете прикреплять файлы к сообщениям
      Вы можете скачивать файлы