Ссылка на приватное зеркало нашего сайта всего за 1$. Внимание количество ограничено!!!

2 сезон

iTunes

1 сезон

1

iTunes

iTunes

iTunes

1 сезон

RePack

30

ИГРА 18+

pack

ВАЖНО

!!Акция!!

Alien_RageХит недели

RePack

MK11
pack

Забери бонус

RePack

jed

!!Акция!!

Alien_Rage

RePack

fifa19

RePack

Assassins Creed: Odyssey

RePack

NEED FOR SPEED™ PAYBACK

4 сезон

9 сезон

Бесстыжие 9 сезон

Все сериалы

все сериалы на PB.wtf

RePack

FAR CRY 5
  

Цепь / 1-8 серии из 8 (Дмитрий Дакович, Дмитрий Онищенко) [2008, боевик, драма, криминал, WEB-DLRip-AVC] pb.wtf

Цепь через торрент pb.wtf

Размер: 4.37 GB | Добавлен: 3 года 6 мес. назад | Торрент скачан:116 раз
Скачать  

10-04-2017 13:17 Цепь Скачать торрент  

ЦепьГод выпуска: 2008
Страна: Россия
Жанр: боевик, драма, криминал
Всего серий: 8
Продолжительность: 8 х ~ 00:44:44
Перевод: Не требуется (Русский)
Субтитры: отсутствуют

Режиссер: Дмитрий Дакович, Дмитрий Онищенко



В ролях:

Алексей Макаров, Сергей Перегудов, Алексей Барабаш, Виктор Вержбицкий, Лилия Кондрова, Елена Аросьева, Оксана Дорохина, Егор Баринов, Артём Федотов, Валерий Баринов, Дмитрий Сидоров (II), Владимир Сычёв, Сергей Гурьев, Александр Аблязов, Майя Полянская, Эдуард Чемодаков, Олег Зиновьев, Дмитрий Клепацкий

Описание:

Виктор, Антон и Степан – олицетворение настоящей мужской дружбы. Ребят очень сблизила война в Чечне. Именно в этих сложных обстоятельствах стало возможным отличить настоящую дружбу от притворства, почувствовать надежное товарищеское плечо, понять, что такое братство спецназовцев. У каждого из них были свои причины отправиться в горячую точку: веселый ловелас Антон (Сергей Перегудов) устал от упреков отца, который упрекал его в несостоятельности; Виктор (Алексей Макаров) считал, что для него это единственная возможность проявить свою любовь к Родине; Степан (Алексей Барабаш) хотел заработать на свадьбу с любимой девушкой. Вернувшись, молодые люди понимают, что их жизнь кардинально поменялась. Их ожидания не оправдываются, все трое остаются не у дел. Это еще больше объединяет трех друзей, и они решают открыть свой автосалон. Честный бизнес идет в гору, но тут на горизонте появляется циничный бандит Македонский (Виктор Вержбицкий). Ему не нравится, что он не получает ничего от такого доходного предприятия. Молодые люди отказываются платить ему «дань» и тут в их жизни начинается новая война. Помимо этого, у каждого из ребят возникают сложности в личной жизни. Степана бросает любимая девушка, ветреный Антон вообще не может определиться, а Виктор наконец-то влюбляется, но так как абсолютно не умеет «рисоваться», девушка не обращает на парня никакого внимания. Картина о том, что такие вещи как настоящая дружба, честь, патриотизм – совсем не архаизм. Именно объединившись, доверяя друг другу, людям легче бороться с жизненными неприятностями и выйти победителями из любой, даже самой сложной ситуации.

Качество: WEB-DLRip-AVC
Формат: MKV
Видео кодек: H.264
Аудио кодек: AC3

Видео: 1024x576 (16:9), 25 fps, AVC MPEG-4 (x264), High@L4.1, ~ 1600 kbps avg, 0.109 bit/pixel
Аудио#1: 44 kHz, АС3, 2/0 (L,R), ~192.00 kbps avg
скриншот   скриншот   скриншот   скриншот  

Общее
Уникальный идентификатор : 194130267882170653758422998069496987995 (0x920C212DA32146A391CCD4544343415B)
Полное имя : C:\Цепь.(2009).WEB-DLRip.(AVC).\01.Цепь.(2009).WEB-DLRip.(AVC).mkv
Формат : Matroska
Версия формата : Version 2
Размер файла : 568 Мбайт
Продолжительность : 44 м. 16 с.
Общий поток : 1794 Кбит/сек
Дата кодирования : UTC 2017-04-02 23:07:22
Программа кодирования : mkvmerge v7.8.0 ('River Man') 32bit built on Apr 3 2015 12:11:22
Библиотека кодирования : libebml v1.3.1 + libmatroska v1.4.2

Видео
Идентификатор : 1
Формат : AVC
Формат/Информация : Advanced Video Codec
Профиль формата : High@L4.1
Параметр CABAC формата : Да
Параметр ReFrames формата : 9 кадров
Идентификатор кодека : V_MPEG4/ISO/AVC
Продолжительность : 44 м. 16 с.
Битрейт : 1600 Кбит/сек
Ширина : 1024 пикселя
Высота : 576 пикселей
Соотношение сторон : 16:9
Режим частоты кадров : Постоянный
Частота кадров : 25,000 кадров/сек
Цветовое пространство : YUV
Субдискретизация насыщенности : 4:2:0
Битовая глубина : 8 бит
Тип развёртки : Прогрессивная
Бит/(Пиксели*Кадры) : 0.109
Размер потока : 496 Мбайт (87%)
Библиотека кодирования : x264 core 146 r2538 121396c
Настройки программы : cabac=1 / ref=9 / deblock=1:-2:-1 / analyse=0x3:0x113 / me=umh / subme=9 / psy=1 / psy_rd=1.00:0.15 / mixed_ref=1 / me_range=32 / chroma_me=1 / trellis=2 / 8x8dct=1 / cqm=0 / deadzone=21,11 / fast_pskip=0 / chroma_qp_offset=-3 / threads=6 / lookahead_threads=1 / sliced_threads=0 / nr=0 / decimate=1 / interlaced=0 / bluray_compat=0 / constrained_intra=0 / bframes=9 / b_pyramid=2 / b_adapt=2 / b_bias=0 / direct=1 / weightb=1 / open_gop=0 / weightp=2 / keyint=250 / keyint_min=25 / scenecut=40 / intra_refresh=0 / rc_lookahead=50 / rc=2pass / mbtree=0 / bitrate=1600 / ratetol=1.0 / qcomp=0.60 / qpmin=0 / qpmax=69 / qpstep=4 / cplxblur=20.0 / qblur=0.5 / vbv_maxrate=14000 / vbv_bufsize=14000 / nal_hrd=none / filler=0 / ip_ratio=1.40 / pb_ratio=1.30 / aq=2:1.00
Default : Да
Forced : Нет
Цветовой диапазон : Limited
Основные цвета : BT.709
Характеристики трансфера : BT.709
Коэффициенты матрицы : BT.709

Аудио
Идентификатор : 2
Формат : AC-3
Формат/Информация : Audio Coding 3
Параметр Endianness формата : Big
Идентификатор кодека : A_AC3
Продолжительность : 44 м. 16 с.
Вид битрейта : Постоянный
Битрейт : 192 Кбит/сек
Каналы : 2 канала
Расположение каналов : Front: L R
Частота : 44,1 КГц
Частота кадров : 28,711 кадров/сек (1536 spf)
Битовая глубина : 16 бит
Метод сжатия : С потерями
Размер потока : 60,8 Мбайт (11%)
ServiceKind/String : Complete Main
Default : Да
Forced : Нет

pb.wtf



Скачать Цепь через торрент http://s020.radikal.ru/i711/1704/8d/87184e514994.jpg Скачать фильм Цепь через торрент бесплантно в хорошем качестве Описание: Виктор, Антон и Степан – олицетворение настоящей мужской дружбы. Ребят очень сблизила война в Чечне. Именно в этих сложных ... 10 10 5
Торрент: Зарегистрирован [2017-04-10 13:17] · скачан: 116 раз
Статус: √ проверено
Размер: 4.37 GB
Как cкачать? Как скачать Цепь через торрент | qTorrent

% Раздел Тема Автор DL S | L
Наши сериалы [ 3.5 GB ] Цепь 1 сезон / [2008 DVDRip] coc900 Скачать
1 | 0

28-11-2019 20:33  

Отключить всю рекламу на сайте

    Дорогой пользователь! Огромная просьба, поблагодарите релизера, оцените раздачу и оставьте свои комментарий, если Вы скачали Цепь через торрент бесплатно! Внесите свою лепту в развитие PiratBit!
    Комментировать посты могут только пользователи прошедшие не сложную регистрацию
    Показать сообщения:    

    Цепь через торрент
    Скачать бесплатно Цепь
    Цепь скачать торрент
    Цепь смотреть онлайн
    Cкачать фильм Цепь бесплатно
    Цепь скачать торрент в хорошем качестве
    Цепь смотреть онлайн бесплатно в хорошем качестве


    Вы не можете начинать темы
    Вы не можете отвечать на сообщения
    Вы не можете редактировать свои сообщения
    Вы не можете удалять свои сообщения
    Вы не можете голосовать в опросах
    Вы не можете прикреплять файлы к сообщениям
    Вы можете скачивать файлы