Ссылка на приватное зеркало нашего сайта всего за 1$. Внимание количество ограничено!!!

2 сезон

iTunes

1 сезон

1

iTunes

iTunes

iTunes

1 сезон

RePack

30

ИГРА 18+

pack

ВАЖНО

!!Акция!!

Alien_RageХит недели

RePack

MK11
pack

Забери бонус

RePack

jed

!!Акция!!

Alien_Rage

RePack

fifa19

RePack

Assassins Creed: Odyssey

RePack

NEED FOR SPEED™ PAYBACK

4 сезон

9 сезон

Бесстыжие 9 сезон

Все сериалы

все сериалы на PB.wtf

RePack

FAR CRY 5
  

Майор и магия / Сезон 1 / 1-32 серии из 32 (Владимир Мельниченко) [2016, Детектив, комедия, криминал, мистика, WEB-DLRip] pb.wtf

Майор и магия через торрент pb.wtf

Размер: 15.63 GB | Добавлен: 9 мес. назад | Торрент скачан:46 раз
Скачать  

10-04-2017 19:55 Майор и магия Скачать торрент  

Майор и магия Год выпуска: 2016
Страна: Украина
Жанр: Детектив, комедия, криминал, мистика
Всего серий: 32
Продолжительность: 32 х ~ 00:45:00
Перевод: Не требуется (Русский)
Субтитры: отсутствуют

Режиссер: Владимир Мельниченко



В ролях: Константин Самоуков, Мария Берсенева, Евгений Сахаров (II), Константин Войтенко, Олег Примогенов, Виктория Билан, Вячеслав Довженко, Владимир Николаенко, Александр Катунин

Описание: Офицер ФСО Антон Амосов проявляет принципиальность и ставит на место обнаглевшего чиновника. Над головой майора сгущаются тучи. Его переводят из Москвы в родной город Рязанск – пока буря не уляжется. Здесь ему приходится работать обычным опером в местном РОВД. Первое задание — арестовать аферистку Елену Воробьяшкину. По дороге у подозреваемой открывается дар предвидения — она предотвращает аварию. Вскоре провидица поступает на службу в полицию и своими «озарениями» помогает Амосову раскрывать самые запутанные дела. Детективный дуэт ждут необычные расследования и личная история на фоне колоритных видов.

Качество: WEB-DLRip
Формат: AVI
Видео кодек: XviD
Аудио кодек: AC3

Видео: 720x400 (1.80:1), 25 fps, XviD build 50 ~1550 kbps avg, 0.215 bit/pixe
Аудио#1: 48 kHz, AC3 Dolby Digital, 2/0 (L,R) ch, ~192 kbps
Общее
Полное имя : D:\Major.i.magija.2016..WEB-DLRip.Files-x\01.Major.i.magija.2016..WEB-DLRip.Files-x.avi
Формат : AVI
Формат/Информация : Audio Video Interleave
Размер файла : 499 Мбайт
Продолжительность : 39 м. 53 с.
Общий поток : 1749 Кбит/сек
Программа кодирования : VirtualDubMod 1.5.10.3 | www.virtualdub-fr.org || (build 2550/release)
Библиотека кодирования : VirtualDubMod build 2550/release

Видео
Идентификатор : 0
Формат : MPEG-4 Visual
Профиль формата : Advanced Simple@L5
Параметр BVOP формата : 1
Параметр QPel формата : Нет
Параметр GMC формата : Без точки перехода
Параметр матрицы формата : Выборочная
Идентификатор кодека : XVID
Идентификатор кодека/Подсказка : XviD
Продолжительность : 39 м. 53 с.
Битрейт : 1547 Кбит/сек
Ширина : 720 пикселей
Высота : 400 пикселей
Соотношение сторон : 16:9
Частота кадров : 25,000 кадров/сек
Цветовое пространство : YUV
Субдискретизация насыщенности : 4:2:0
Битовая глубина : 8 бит
Тип развёртки : Прогрессивная
Метод сжатия : С потерями
Бит/(Пиксели*Кадры) : 0.215
Размер потока : 442 Мбайт (88%)
Библиотека кодирования : XviD 73

Аудио
Идентификатор : 1
Формат : AC-3
Формат/Информация : Audio Coding 3
Расширение режима : CM (complete main)
Параметр Endianness формата : Big
Идентификатор кодека : 2000
Продолжительность : 39 м. 53 с.
Вид битрейта : Постоянный
Битрейт : 192 Кбит/сек
Каналы : 2 канала
Расположение каналов : Front: L R
Частота : 48,0 КГц
Частота кадров : 31,250 кадров/сек (1536 spf)
Метод сжатия : С потерями
Размер потока : 54,8 Мбайт (11%)
Выравнивание : Разделение по промежуткам
Продолжительность промежутка : 40 мс. (1,00 видеокадр)
Время предзагрузки промежутка : 500 мс.
скриншот   скриншот   скриншот   скриншот  
pb.wtf



Скачать Майор и магия через торрент http://i90.fastpic.ru/big/2017/0131/f0/e0c09532d2b3cb6ae778d514a88544f0.jpg Скачать фильм Майор и магия через торрент бесплантно в хорошем качестве Описание: Офицер ФСО Антон Амосов проявляет принципиальность и ставит на место обнаглевшего чиновника. Над головой майора сгущаются тучи. ... 8 10 7
Торрент: Зарегистрирован [2020-01-06 13:59] · скачан: 46 раз
Статус: √ проверено
Размер: 15.63 GB
Как cкачать? Как скачать Майор и магия через торрент | qTorrent

% Раздел Тема Автор DL S | L
Наши сериалы [ 15.87 GB ] Майор и магия / Сезон: 1 / Серии: 1-32 из 32 [2016 WEB-DLRip-AVC] bober100 Скачать
2 | 0
Наши сериалы [ 28.79 GB ] Майор и магия / Сезон: 1 / Серии: 1-32 из 32 [2016 WEB-DL 1080p] bober100 Скачать
1 | 0
Наши сериалы [ 20.2 GB ] Майор и магия / Майор и Ведьма / Сезон: 1 / Серии 1-32 из 32 [2016 WEB-DL 720p] GEKADOL Скачать
1 | 0

28-11-2019 20:33  

Отключить всю рекламу на сайте

    Дорогой пользователь! Огромная просьба, поблагодарите релизера, оцените раздачу и оставьте свои комментарий, если Вы скачали Майор и магия через торрент бесплатно! Внесите свою лепту в развитие PiratBit!
    Комментировать посты могут только пользователи прошедшие не сложную регистрацию
    Показать сообщения:    

    Майор и магия через торрент
    Скачать бесплатно Майор и магия
    Майор и магия скачать торрент
    Майор и магия смотреть онлайн
    Cкачать фильм Майор и магия бесплатно
    Майор и магия скачать торрент в хорошем качестве
    Майор и магия смотреть онлайн бесплатно в хорошем качестве


    Вы не можете начинать темы
    Вы не можете отвечать на сообщения
    Вы не можете редактировать свои сообщения
    Вы не можете удалять свои сообщения
    Вы не можете голосовать в опросах
    Вы не можете прикреплять файлы к сообщениям
    Вы можете скачивать файлы