Ссылка на приватное зеркало нашего сайта всего за 1$. Внимание количество ограничено!!!

2 сезон

iTunes

1 сезон

1

iTunes

iTunes

iTunes

1 сезон

RePack

30

ИГРА 18+

pack

ВАЖНО

!!Акция!!

Alien_RageХит недели

RePack

MK11
pack

Забери бонус

RePack

jed

!!Акция!!

Alien_Rage

RePack

fifa19

RePack

Assassins Creed: Odyssey

RePack

NEED FOR SPEED™ PAYBACK

4 сезон

9 сезон

Бесстыжие 9 сезон

Все сериалы

все сериалы на PB.wtf

RePack

FAR CRY 5
  

Филфак / Сезон: 1 / Серии 1-20 из 20 (Фёдор Стуков) [2017, Россия, комедия, WEB-DL 720p] pb.wtf

Филфак через торрент pb.wtf

Размер: 8.2 GB | Добавлен: 3 года 6 мес. назад | Торрент скачан:338 раз
Скачать  

11-04-2017 01:04 Филфак Скачать торрент  


Филфак

«Сериал про тех, кто видит книгу!»


  • Год выпуска: 2017
  • Страна: Россия
  • Жанр: комедия
  • Продолжительность: 00:21:28 (Серия)
  • Перевод: Не требуется [Русский]
  • Режиссер: Фёдор Стуков
  • В ролях:

    Денис Парамонов (Миша), Александра Бортич (Лена), Алексей Золотовицкий (Женя), Василий Поспелов (Бабин), Ефим Шифрин (Гудков), Виолетта Давыдовская (Вера), Полина Пушкарук (Надя), Алексей Литвиненко (Боря), Михаил Тройник (Слава), Александра Велескевич (Маша), Дарья Шелест (Вероника), Елена Старостина (Ляхова)


  • Главные герои сериала «Филфак» — трое молодых людей, которым удается поступить на филологический факультет, 98% студентов которого — девушки. Пикантность ситуации придает тот факт, что все трое — девственники. Оказавшись в ситуации, о которой, казалось бы, в их положении можно только мечтать, герои чувствуют себя неловко и постоянно попадают в нелепые истории.
  • Рейтинг:



  • Качество: WEB-DL 720p
  • Формат: :MKV
  • Видео кодек: AVC
  • Аудио кодек: AC3
  • Видео: 2419 Кбит/сек, 1280*720 (16:9), в 25,000 кадров/сек, AVC
  • Аудио: 192 Кбит/сек, 44,1 КГц, 16 бит, 2 канала, AC-3
  • Релиз от:

    Внимание! Раздача ведётся путём добавления новых серий; при каждом добавлении создаётся новый торрент. Чтобы начать докачку новой серии, пользователям необходимо сделать следующее:
    (1) остановить скачивание,
    (2) удалить старый торрент у себя из клиента (старые серии удалять не надо),
    (3) скачать новый торрент и запустить его у себя в клиенте вместо старого, при этом указать клиенту путь в старую папку куда и должно происходить скачивание новых серий.
    Ваш клиент при этом должен произвести хеширование (проверку) старой папки (если не производит сам - помогите ему сделать это), и будет докачивать только те серии которых у вас ещё нет. Старые серии при этом не удаляются, а продолжают раздаваться!
    Eсли вы уже удалили старые серии, то предотвратить повторную закачку старых серий можно, отжав галочку в соответствующих местах при запуске нового торрента. По возможности, желательно не удалять старые серии как можно дольше чтобы релизёр не столько продолжал раздавать старые серии, а смог сконцентрироваться на новых.

    Общее
    Уникальный идентификатор : 291257995148539872673842742756390847997 (0xDB1E3FDB4AAFF98150E8C394A199C5FD)
    Полное имя : G:\Филфак.2017.WEB-DL (720p).Files-x\03.Филфак.2017.WEB-DL (720p).Files-x.mkv
    Формат : Matroska
    Версия формата : Version 4 / Version 2
    Размер файла : 441 Мбайт
    Продолжительность : 23 м. 9 с.
    Режим общего битрейта : Переменный
    Общий поток : 2664 Кбит/сек
    Программа кодирования : Lavf56.36.100
    Библиотека кодирования : Lavf56.36.100 / Lavf56.36.100

    Видео
    Идентификатор : 1
    Формат : AVC
    Формат/Информация : Advanced Video Codec
    Профиль формата : Main@L3.1
    Параметр CABAC формата : Да
    Параметр ReFrames формата : 3 кадра
    Параметр GOP формата : M=3, N=33
    Идентификатор кодека : V_MPEG4/ISO/AVC
    Продолжительность : 23 м. 9 с.
    Вид битрейта : Переменный
    Битрейт : 2419 Кбит/сек
    Максимальный битрейт : 4000 Кбит/сек
    Ширина : 1280 пикселей
    Высота : 720 пикселей
    Соотношение сторон : 16:9
    Режим частоты кадров : Постоянный
    Частота кадров : 25,000 кадров/сек
    Стандарт вещания : PAL
    Цветовое пространство : YUV
    Субдискретизация насыщенности : 4:2:0
    Битовая глубина : 8 бит
    Тип развёртки : Прогрессивная
    Бит/(Пиксели*Кадры) : 0.105
    Размер потока : 401 Мбайт (91%)
    Default : Да
    Forced : Нет
    Цветовой диапазон : Limited

    Аудио
    Идентификатор : 2
    Формат : AC-3
    Формат/Информация : Audio Coding 3
    Расширение режима : CM (complete main)
    Параметр Endianness формата : Big
    Идентификатор кодека : A_AC3
    Продолжительность : 23 м. 9 с.
    Вид битрейта : Постоянный
    Битрейт : 192 Кбит/сек
    Каналы : 2 канала
    Расположение каналов : Front: L R
    Частота : 44,1 КГц
    Частота кадров : 28,711 кадров/сек (1536 spf)
    Битовая глубина : 16 бит
    Метод сжатия : С потерями
    Задержка видео : -40 мс.
    Размер потока : 31,8 Мбайт (7%)
    Язык : unknown
    Default : Да
    Forced : Нет

    Скриншоты:
    скриншот   скриншот   скриншот   скриншот   скриншот   скриншот   скриншот  
    скриншот  

    Раздача ведётся путём добавления новых серий. Добавлена 20 серия (28.04.2017).Просьба перекачать торрент файл.

    pb.wtf



  • Скачать Филфак через торрент http://pic1.kartinco.top/images/11/r897k.jpg Скачать фильм Филфак через торрент бесплантно в хорошем качестве qw.png Главные герои сериала «Филфак» — трое молодых людей, которым удается поступить на филологический факультет, 98% студентов которого ... 9.5 10 21
    Info! Золотая раздача, скачанное не засчитывается.
    Торрент: Зарегистрирован [2017-04-28 01:17] · скачан: 338 раз
    Статус: √ проверено
    Размер: 8.2 GB
    Как cкачать? Как скачать Филфак через торрент | qTorrent

    % Раздел Тема Автор DL S | L
    Наши сериалы [ 6.84 GB ] Филфак / Сезон: 1 / Серии: 1-20 из 20 [2017 WEB-DLRip] bober100 Скачать
    1 | 0
    Наши сериалы [ 5.84 GB ] Филфак / Сезон: 1 / Серии 1-20 из 20 [2017 Россия SATRip] GEKADOL Скачать
    2 | 0
    T Релизы по Парсеру [Игры, Сериалы и Фильмы и другое...] [ 11 GB ] Филфак / Сезон: 1 / Серии 1-20 из 20 [2017 Россия HDTVRip ] Nirvana Скачать
    1 | 0
    T Релизы по Парсеру [Игры, Сериалы и Фильмы и другое...] [ 19.9 GB ] Филфак / Сезон: 1 / Серии 1-20 из 20 [2017 Россия HDTV ] Nirvana Скачать
    1 | 0


    Последний раз редактировалось: GEKADOL (2017-04-28 01:16), всего редактировалось 7 раз(а)

    28-11-2019 20:33  

    Отключить всю рекламу на сайте

    19-04-2017 23:04 Филфак Скачать торрент  

    сериал на любителя но местами есть где посмеятся сп за раздачу pb.wtf



    26-04-2017 23:37 Филфак Скачать торрент  

    meduza писал(а):

    сериал на любителя но местами есть где посмеятся сп за раздачу

    pb.wtf



      Дорогой пользователь! Огромная просьба, поблагодарите релизера, оцените раздачу и оставьте свои комментарий, если Вы скачали Филфак через торрент бесплатно! Внесите свою лепту в развитие PiratBit!
      Комментировать посты могут только пользователи прошедшие не сложную регистрацию
      Показать сообщения:    

      Филфак через торрент
      Скачать бесплатно Филфак
      Филфак скачать торрент
      Филфак смотреть онлайн
      Cкачать фильм Филфак бесплатно
      Филфак скачать торрент в хорошем качестве
      Филфак смотреть онлайн бесплатно в хорошем качестве


      Вы не можете начинать темы
      Вы не можете отвечать на сообщения
      Вы не можете редактировать свои сообщения
      Вы не можете удалять свои сообщения
      Вы не можете голосовать в опросах
      Вы не можете прикреплять файлы к сообщениям
      Вы можете скачивать файлы