Ссылка на приватное зеркало всего за 1$. Внимание количество ограничено!!!

iTunes

1+1

iTunes

мы

WEB-DL

1

iTunes

Чернобыль

iTunes

Ральф против интернета

Лицензия

ПШазам

Лицензия

Оно 2

Лицензия

30
pack

Вам бонус

ВАЖНО

!!Акция!!

Alien_RageХит недели

RePack

Resident Evil 21

ИГРА 18+

pack

RePack

jed

!!Акция!!

Alien_Rage

RePack

fifa19

RePack

Assassins Creed: Odyssey

RePack

NEED FOR SPEED™ PAYBACK

3 сезон

9 сезон

Бесстыжие 9 сезон

Все сериалы

все сериалы на PB.wtf

RePack

FAR CRY 5
Ребята, катастрофически не хватает 1900р. для оплаты серверов за Октябрь (всвязи с блокировками трафик упал в 3 раза), 1-2р., выручайте.
  

Наш милый доктор (Шакен Айманов) [1957, СССР, комедия, SATRip от AVP Studio] pb.wtf

Наш милый доктор через торрент pb.wtf

Размер: 1.09 GB | Добавлен: 2 года 8 мес. назад | Торрент скачан:4 раза
Скачать  

11-04-2017 07:00 Наш милый доктор Скачать торрент  

Наш милый доктор
Страна: СССР
Производство: Алма-Атинская киностудия

Жанр: комедия
Год выпуска: 1957
Продолжительность: 01:26:28

Перевод: Не требуется
Cубтитры: нет
Оригинальная аудиодорожка: русский

Режиссер: Шакен Айманов

В ролях:
Юрий Померанцев, Роза Исмаилова, Евгений Диордиев, Ермек Серкебаев, Мулюк Суртубаев, Валентина Старжинская, Шакен Айманов, Лидия Ашрапова, Ришат Абдуллин, Муслим Абдуллин, Хадиша Букеева, Шара Жиенкулова, Серке (Сералы) Кожамкулов, Рахия Койчубаева, Каукен Кенжетаев, Бибигуль Тулегенова...
Об актёрах подробней

Описание:
В день рождения доктора пациенты санатория решили устроить сюрприз юбиляру — организовать концерт с участием известных артистов эстрады... Дебют в кино композитора Александра Зацепина и певца Ермека Серкебаева.

Источник: DVB
Качество видео: SATRip
Формат видео: AVI

Видео: 720x544 (4:3), 25 fps, XviD ~ 1603 kbps avg, 0.164 bit/pixel
Аудио: 48 kHz, Dolby Digital AC3 2.0, 192 kbps

Раздача от:
Общее
Полное имя : Nash.milyy.doktor.1957.SATRip_[New-team]_by_AVP_Studio.avi
Формат : AVI
Формат/Информация : Audio Video Interleave
Размер файла : 1,09 Гбайт
Продолжительность : 1 ч. 26 м.
Общий поток : 1804 Кбит/сек
Программа кодирования : VirtualDubMod 1.5.10.3 | www.virtualdub-fr.org || (build 2550/release)
Библиотека кодирования : VirtualDubMod build 2550/release

Видео
Идентификатор : 0
Формат : MPEG-4 Visual
Профиль формата : Advanced Simple@L5
Параметр BVOP формата : 1
Параметр QPel формата : Нет
Параметр GMC формата : Без точки перехода
Параметр матрицы формата : Выборочная
Идентификатор кодека : XVID
Идентификатор кодека/Подсказка : XviD
Продолжительность : 1 ч. 26 м.
Битрейт : 1603 Кбит/сек
Ширина : 720 пикселей
Высота : 544 пикселя
Соотношение сторон : 4:3
Частота кадров : 25,000 кадров/сек
Цветовое пространство : YUV
Субдискретизация насыщенности : 4:2:0
Битовая глубина : 8 бит
Тип развёртки : Прогрессивная
Метод сжатия : С потерями
Бит/(Пиксели*Кадры) : 0.164
Размер потока : 991 Мбайт (89%)
Библиотека кодирования : XviD 73

Аудио
Идентификатор : 1
Формат : AC-3
Формат/Информация : Audio Coding 3
Параметр Endianness формата : Big
Идентификатор кодека : 2000
Продолжительность : 1 ч. 26 м.
Вид битрейта : Постоянный
Битрейт : 192 Кбит/сек
Каналы : 2 канала
Расположение каналов : Front: L R
Частота : 48,0 КГц
Частота кадров : 31,250 кадров/сек (1536 spf)
Битовая глубина : 16 бит
Метод сжатия : С потерями
Размер потока : 119 Мбайт (11%)
Выравнивание : Разделение по промежуткам
Продолжительность промежутка : 40 мс. (1,00 видеокадр)
Время предзагрузки промежутка : 500 мс
pb.wtf



Скачать Наш милый доктор через торрент http://s019.radikal.ru/i625/1704/96/e1f8f972c272.png Скачать фильм Наш милый доктор через торрент бесплантно в хорошем качестве Описание:В день рождения доктора пациенты санатория решили устроить сюрприз юбиляру — организовать концерт с участием известных артистов ... 10 10 1
Info! Золотая раздача, скачанное не засчитывается.
Торрент: Зарегистрирован [2017-04-11 07:00] · скачан: 4 раз
Статус: √ проверено
Размер: 1.09 GB
Как cкачать? Как скачать Наш милый доктор через торрент | qTorrent

% Раздел Тема Автор DL S | L
Кино СССР [ 1.09 GB ] Наш милый доктор [1957 СССР SATRip-AVC от AVP Studio] AVP Studio Скачать
1 | 0
Кино СССР [ 746 MB ] Наш милый доктор [1957 СССР SATRip от AVP Studio] AVP Studio Скачать
1 | 0

28-11-2019 20:33  

Отключить всю рекламу на сайте

    Дорогой пользователь! Огромная просьба, поблагодарите релизера, оцените раздачу и оставьте свои комментарий, если Вы скачали Наш милый доктор через торрент бесплатно! Внесите свою лепту в развитие PiratBit!
    Комментировать посты могут только пользователи прошедшие не сложную регистрацию
    Показать сообщения:    

    Наш милый доктор через торрент
    Скачать бесплатно Наш милый доктор
    Наш милый доктор скачать торрент
    Наш милый доктор смотреть онлайн
    Cкачать фильм Наш милый доктор бесплатно
    Наш милый доктор скачать торрент в хорошем качестве
    Наш милый доктор смотреть онлайн бесплатно в хорошем качестве


    Вы не можете начинать темы
    Вы не можете отвечать на сообщения
    Вы не можете редактировать свои сообщения
    Вы не можете удалять свои сообщения
    Вы не можете голосовать в опросах
    Вы не можете прикреплять файлы к сообщениям
    Вы можете скачивать файлы