Всегда рабочее зеркало просто перед .vidak.icu напиши любое слово или цифру, Пример http://1ug.vidak.icu

>

7.4

iTunes

7.4

2 сезон

9.4

1 сезон

1

7.4

2 сезон

7.2

iTunes

6.0

MVO

13

6.1

iTunes

8.3

Пиратка

30

ULTIMATE

pack

9.9

Лицензия

ВАЖНО

ИГРА 18+

pack

7.3

RePack

MK11

7.7

RePack

jed

7.8

RePack

fifa19

8.5

RePack

RDR2

RePack

NEED FOR SPEED™ PAYBACK

1 сезон

9 сезон

Бесстыжие 9 сезон

Все сериалы

все сериалы на PB.wtf

RePack

FAR CRY 5

Anonymous, доброе утро, мы катастрофически не успеваем собрать деньги на оплату серверов, помогите нам пожалуйста 5,10,15р., для нас важна любая помощь . В качестве благодарности мы отключим Вам всю рекламу на сайте (укажите свой ник в строку Ваше имя)!

×
  
Magnet ссылка

Железная роза / La rose de fer (Жан Роллен) [1973, ужасы, фэнтези, BDRip 1080p by msltel] AVO pb.wtf

Железная роза через торрент pb.wtf

Размер: 7.12 GB | Добавлен: 4 года 9 мес. назад | Торрент скачан:7 раз
Смотреть онлайн Железная роза | Скачать    Ребята, помогите собрать деньги на оплату серверов!!!

11-04-2017 10:00 Железная роза Скачать торрент  

Название: Железная Роза
Оригинальное название: La rose de fer
Год выпуска: 1973
Страна: Франция
Жанр: ужасы, фэнтези
Продолжительность: 01:20:34
Перевод: авторский

Режиссёр: Жан Роллен

В ролях: Франсуаза Паскаль, Юг Кестер, Натали Перри, Мирей Д’Аржент, Мишель Дэлесаль, Жан Роллен

Описание: Юноша и девушка знакомятся на свадьбе и договариваются встретиться в следующее воскресенье. В конце прогулки они заходят на огромное кладбище. Найдя заброшенный склеп, они спускаются в него и занимаются любовью. Когда они выходят из него, уже наступила полночь. Кладбище выглядит угрожающе; оно населено леденящими душу тенями, и они не могут найти выход…



Качество: BDRip 1080p
Формат: MKV
Видео: MPEG-4 AVC, 12.3 Mбит/с, 1776x1080, 23,976 кадра/с
Аудио 1: русский, AC3, 192 kbps, 2 ch, 48 kHz [авторский, Владимир Штейн]
Аудио 2: французский, AC3, 192 kbps, 2 ch, 48 kHz [оригинал]
Субтитры: английские
Имеются неименованные главы/чаптеры.
Общее
Уникальный идентификатор : 248039524336358251787635531730473627524 (0xBA9AACBB2D566F19A249BDCB63AAAF84)
Полное имя : D:\Video\Железная роза.1973.BDRip.1080p by msltel.mkv
Формат : Matroska
Версия формата : Version 4 / Version 2
Размер файла : 7,12 Гбайт
Продолжительность : 1 ч. 20 м.
Общий поток : 12,7 Мбит/сек
Название фильма : Rip by msltel
Дата кодирования : UTC 2017-04-11 08:18:33
Программа кодирования : mkvmerge v8.2.0 ('World of Adventure') 64bit
Библиотека кодирования : libebml v1.3.1 + libmatroska v1.4.2

Видео
Идентификатор : 1
Формат : AVC
Формат/Информация : Advanced Video Codec
Профиль формата : High@L4.1
Параметр CABAC формата : Да
Параметр ReFrames формата : 4 кадра
Идентификатор кодека : V_MPEG4/ISO/AVC
Продолжительность : 1 ч. 20 м.
Битрейт : 12,3 Мбит/сек
Ширина : 1776 пикселей
Высота : 1080 пикселей
Соотношение сторон : 16:10
Режим частоты кадров : Постоянный
Частота кадров : 23,976 (24000/1001) кадра/сек
Цветовое пространство : YUV
Субдискретизация насыщенности : 4:2:0
Битовая глубина : 8 бит
Тип развёртки : Прогрессивная
Бит/(Пиксели*Кадры) : 0.267
Размер потока : 6,91 Гбайт (97%)
Библиотека кодирования : x264 core 146 r2538 121396c
Настройки программы : cabac=1 / ref=4 / deblock=1:-3:-2 / analyse=0x3:0x113 / me=umh / subme=11 / psy=1 / psy_rd=1.00:0.15 / mixed_ref=1 / me_range=32 / chroma_me=1 / trellis=2 / 8x8dct=1 / cqm=0 / deadzone=21,11 / fast_pskip=0 / chroma_qp_offset=-3 / threads=6 / lookahead_threads=1 / sliced_threads=0 / nr=0 / decimate=1 / interlaced=0 / bluray_compat=0 / constrained_intra=0 / bframes=13 / b_pyramid=2 / b_adapt=2 / b_bias=0 / direct=1 / weightb=1 / open_gop=0 / weightp=2 / keyint=230 / keyint_min=23 / scenecut=40 / intra_refresh=0 / rc_lookahead=40 / rc=crf / mbtree=0 / crf=17.8 / qcomp=0.60 / qpmin=0 / qpmax=69 / qpstep=4 / vbv_maxrate=62500 / vbv_bufsize=78125 / crf_max=0.0 / nal_hrd=none / filler=0 / ip_ratio=1.40 / pb_ratio=1.30 / aq=1:1.00
Язык : French
Default : Да
Forced : Нет

Аудио #1
Идентификатор : 2
Формат : AC-3
Формат/Информация : Audio Coding 3
Параметр Endianness формата : Big
Идентификатор кодека : A_AC3
Продолжительность : 1 ч. 20 м.
Вид битрейта : Постоянный
Битрейт : 192 Кбит/сек
Каналы : 2 канала
Расположение каналов : Front: L R
Частота : 48,0 КГц
Частота кадров : 31,250 кадров/сек (1536 spf)
Битовая глубина : 16 бит
Метод сжатия : С потерями
Размер потока : 111 Мбайт (2%)
Заголовок : AVO (Владимир Штейн)
Язык : Russian
ServiceKind/String : Complete Main
Default : Да
Forced : Нет

Аудио #2
Идентификатор : 3
Формат : AC-3
Формат/Информация : Audio Coding 3
Параметр Endianness формата : Big
Идентификатор кодека : A_AC3
Продолжительность : 1 ч. 20 м.
Вид битрейта : Постоянный
Битрейт : 192 Кбит/сек
Каналы : 2 канала
Расположение каналов : Front: L R
Частота : 48,0 КГц
Частота кадров : 31,250 кадров/сек (1536 spf)
Битовая глубина : 16 бит
Метод сжатия : С потерями
Размер потока : 111 Мбайт (2%)
Заголовок : original
Язык : French
ServiceKind/String : Complete Main
Default : Нет
Forced : Нет

Текст
Идентификатор : 4
Формат : UTF-8
Идентификатор кодека : S_TEXT/UTF8
Идентификатор кодека/Информация : UTF-8 Plain Text
Продолжительность : 1 ч. 14 м.
Битрейт : 14 бит/сек
ElementCount : 286
Размер потока : 8,02 Кбайт (0%)
Заголовок : английские
Язык : English
Default : Нет
Forced : Нет

Меню
00:00:00.000 : :Chapter 01
00:08:30.134 : :Chapter 02
00:13:46.784 : :Chapter 03
00:25:49.630 : :Chapter 04
00:31:56.873 : :Chapter 05
00:39:31.077 : :Chapter 06
00:50:09.339 : :Chapter 07
00:56:54.035 : :Chapter 08
01:02:43.801 : :Chapter 09
01:13:42.459 : :Chapter 10
01:20:26.863 : :Chapter 11
pb.wtf



Скачать Железная роза через торрент http://hostpic.gq/img/2017-04/11/dlopeyxsbmk7uxgvd5u4rspho.jpg Скачать, смотреть онлайн Железная роза бесплантно в хорошем качестве Описание: Юноша и девушка знакомятся на свадьбе и договариваются встретиться в следующее воскресенье. В конце прогулки они заходят на ... 10 10 3
Info! Золотая раздача, скачанное не засчитывается.
Торрент: Зарегистрирован [2017-04-11 10:00] · скачан: 7 раз
Статус: √ проверено
Размер: 7.12 GB
Как cкачать? Как скачать Железная роза через торрент | UTorrent

% Раздел Тема Автор DL S | L
Фильмы с авторской озвучкой [ 2.86 GB ] Железная роза / La rose de fer [1973 BDRip 720p by msltel] AVO msltel Скачать
1 | 0

28-11-2019 20:33  

Отключить всю рекламу на сайте

11-04-2017 12:35 Железная роза Скачать торрент  

pb.wtf



    Дорогой пользователь! Огромная просьба, поблагодарите релизера, оцените раздачу и оставьте свои комментарий, если Вы скачали Железная роза через торрент бесплатно!
    Комментировать посты могут только пользователи прошедшие не сложную регистрацию
    Показать сообщения:    

    Железная роза через торрент
    Скачать бесплатно Железная роза
    Железная роза скачать торрент
    Железная роза смотреть онлайн
    Cкачать фильм Железная роза бесплатно
    Железная роза скачать торрент в хорошем качестве
    Железная роза смотреть онлайн бесплатно в хорошем качестве


    Вы не можете начинать темы
    Вы не можете отвечать на сообщения
    Вы не можете редактировать свои сообщения
    Вы не можете удалять свои сообщения
    Вы не можете голосовать в опросах
    Вы не можете прикреплять файлы к сообщениям
    Вы можете скачивать файлы