Ссылка на приватное зеркало нашего сайта всего за 1$. Внимание количество ограничено!!!

2 сезон

iTunes

1 сезон

1

iTunes

iTunes

iTunes

1 сезон

RePack

30

ИГРА 18+

pack

ВАЖНО

!!Акция!!

Alien_RageХит недели

RePack

MK11
pack

Забери бонус

RePack

jed

!!Акция!!

Alien_Rage

RePack

fifa19

RePack

Assassins Creed: Odyssey

RePack

NEED FOR SPEED™ PAYBACK

4 сезон

9 сезон

Бесстыжие 9 сезон

Все сериалы

все сериалы на PB.wtf

RePack

FAR CRY 5
  

Доброе утро, Вьетнам / Good Morning, Vietnam (Барри Левинсон) [1987, драма, комедия, военный, BDRip 1080p] DUB, MVO, AVO pb.wtf

Доброе утро, Вьетнам через торрент pb.wtf

Размер: 12.6 GB | Добавлен: 3 года 6 мес. назад | Торрент скачан:83 раза
Скачать  

11-04-2017 10:44 Доброе утро, Вьетнам Скачать торрент  

Доброе утро, Вьетнам / Good Morning, Vietnam

Год выпуска: 1987
Страна: США
Жанр: драма, комедия, военный, биография

Продолжительность: 02:01:38
Перевод: Дубляж; Профессиональный многоголосый; Авторский одноголосый
Субтитры: английские
Режиссер: Барри Левинсон
В ролях:

Робин Уильямс (Adrian Cronauer), Форест Уитакер (Edward Garlick), Бруно Кёрби (Lt. Steven Hauk), Дж.Т. Уолш (Sgt. Major Dickerson), Роберт Вул (Marty Lee Dreiwitz), Ричард Портноу (Dan «The Man» Levitan), Тунг Тхань Чан (Tuan), Чинтара Сукапатана (Trinh), Ноубл Уиллингэм (Gen. Taylor), Ричард Эдсон (Pvt. Abersold), Джуни Смит (Phil McPherson), Флойд Вивино (Eddie Kirk)
Описание:
Вьетнам 1965 года - пока еще безмятежный курорт с жарким солнцем, красивыми девушками и привольной службой. Но однажды утром раздался оглушительный взрыв... хохота, когда в эфир армейской радиостанции впервые вышел новый ведущий Эдриан Кронауэр.
Рейтинг:

MPAA: R - Лицам до 17 лет обязательно присутствие взрослого
Качество: BDRip 1080p
Формат: MKV
Видео: AVC, 1920x1040 (1.85:1), 11495 kbps, 24 fps, 0,240 bpp
Аудио №1: русский / AC3 / 2.0 / 48 kHz / 192 kbps / |Дубляж|
Аудио №2: русский / DTS / 5.1 / 48 kHz / 1509 kbps / 24 bit |MVO, Видеосервис|
Аудио №3: русский / AC3 / 2.0 / 48 kHz / 192 kbps / |AVO, Михалев|
Аудио №4: английский / DTS / 5.1 / 48 kHz / 1509 kbps / 24 bit
General
Unique ID : 238905495772492855423844436916218691479 (0xB3BB865A848F675C90BE9D23A50CFF97)
Complete name : E:\Доброе утро, Вьетнам.mkv
Format : Matroska
Format version : Version 2
File size : 12.6 GiB
Duration : 2 h 1 min
Overall bit rate : 14.8 Mb/s
Encoded date : UTC 2012-02-19 07:38:06
Writing application : mkvmerge v5.3.0 ('I could have danced') built on Feb 9 2012 10:38:07
Writing library : libebml v1.2.3 + libmatroska v1.3.0

Video
ID : 1
Format : AVC
Format/Info : Advanced Video Codec
Format profile : High@L4.1
Format settings, CABAC : Yes
Format settings, ReFrames : 4 frames
Codec ID : V_MPEG4/ISO/AVC
Duration : 2 h 1 min
Bit rate : 11.5 Mb/s
Width : 1 920 pixels
Height : 1 040 pixels
Display aspect ratio : 1.85:1
Frame rate mode : Constant
Frame rate : 24.000 FPS
Color space : YUV
Chroma subsampling : 4:2:0
Bit depth : 8 bits
Scan type : Progressive
Bits/(Pixel*Frame) : 0.240
Stream size : 9.46 GiB (75%)
Writing library : x264 core 118 r2085 8a62835
Encoding settings : cabac=1 / ref=4 / deblock=1:-3:-3 / analyse=0x3:0x113 / me=umh / subme=9 / psy=1 / psy_rd=1.00:0.10 / mixed_ref=1 / me_range=48 / chroma_me=1 / trellis=2 / 8x8dct=1 / cqm=2 / deadzone=21,11 / fast_pskip=0 / chroma_qp_offset=-2 / threads=12 / sliced_threads=0 / nr=0 / decimate=1 / interlaced=0 / bluray_compat=0 / constrained_intra=0 / bframes=6 / b_pyramid=2 / b_adapt=2 / b_bias=0 / direct=3 / weightb=1 / open_gop=0 / weightp=2 / keyint=250 / keyint_min=23 / scenecut=40 / intra_refresh=0 / rc_lookahead=40 / rc=2pass / mbtree=1 / bitrate=11495 / ratetol=2.0 / qcomp=0.70 / qpmin=1 / qpmax=63 / qpstep=4 / cplxblur=20.0 / qblur=0.5 / vbv_maxrate=50000 / vbv_bufsize=50000 / nal_hrd=none / ip_ratio=1.40 / aq=1:0.80
Language : English
Default : Yes
Forced : No

Audio #1
ID : 2
Format : AC-3
Format/Info : Audio Coding 3
Mode extension : CM (complete main)
Format settings, Endianness : Big
Codec ID : A_AC3
Duration : 2 h 1 min
Bit rate mode : Constant
Bit rate : 192 kb/s
Channel(s) : 2 channels
Channel positions : Front: L R
Sampling rate : 48.0 kHz
Frame rate : 31.250 FPS (1536 spf)
Compression mode : Lossy
Stream size : 167 MiB (1%)
Title : Дублированный
Language : Russian
Default : Yes
Forced : No

Audio #2
ID : 3
Format : DTS
Format/Info : Digital Theater Systems
Mode : 16
Format settings, Endianness : Big
Codec ID : A_DTS
Duration : 2 h 1 min
Bit rate mode : Constant
Bit rate : 1 509 kb/s
Channel(s) : 6 channels
Channel positions : Front: L C R, Side: L R, LFE
Sampling rate : 48.0 kHz
Frame rate : 93.750 FPS (512 spf)
Bit depth : 24 bits
Compression mode : Lossy
Stream size : 1.28 GiB (10%)
Title : Многоголосый, Видеосервис
Language : Russian
Default : No
Forced : No

Audio #3
ID : 4
Format : AC-3
Format/Info : Audio Coding 3
Mode extension : CM (complete main)
Format settings, Endianness : Big
Codec ID : A_AC3
Duration : 2 h 1 min
Bit rate mode : Constant
Bit rate : 192 kb/s
Channel(s) : 2 channels
Channel positions : Front: L R
Sampling rate : 48.0 kHz
Frame rate : 31.250 FPS (1536 spf)
Compression mode : Lossy
Stream size : 167 MiB (1%)
Title : Одноголосый, Михалев
Language : Russian
Default : No
Forced : No

Audio #4
ID : 5
Format : DTS
Format/Info : Digital Theater Systems
Mode : 16
Format settings, Endianness : Big
Codec ID : A_DTS
Duration : 2 h 1 min
Bit rate mode : Constant
Bit rate : 1 509 kb/s
Channel(s) : 6 channels
Channel positions : Front: L C R, Side: L R, LFE
Sampling rate : 48.0 kHz
Frame rate : 93.750 FPS (512 spf)
Bit depth : 24 bits
Compression mode : Lossy
Stream size : 1.28 GiB (10%)
Title : Оригинал
Language : English
Default : No
Forced : No

Text
ID : 6
Format : UTF-8
Codec ID : S_TEXT/UTF8
Codec ID/Info : UTF-8 Plain Text
Language : English
Default : No
Forced : No
pb.wtf



Скачать Доброе утро, Вьетнам через торрент http://i1.imageban.ru/out/2017/04/11/8436ae9c2be19ae8645b944cd17653cf.jpg Скачать фильм Доброе утро, Вьетнам через торрент бесплантно в хорошем качестве Описание: Вьетнам 1965 года - пока еще безмятежный курорт с жарким солнцем, красивыми девушками и привольной службой. Но однажды утром ... 10 10 6
Info! Золотая раздача, скачанное не засчитывается.
Торрент: Зарегистрирован [2017-04-11 10:44] · скачан: 83 раз
Статус: √ проверено
Размер: 12.6 GB
Как cкачать? Как скачать Доброе утро, Вьетнам через торрент | qTorrent

28-11-2019 20:33  

Отключить всю рекламу на сайте

    Дорогой пользователь! Огромная просьба, поблагодарите релизера, оцените раздачу и оставьте свои комментарий, если Вы скачали Доброе утро, Вьетнам через торрент бесплатно! Внесите свою лепту в развитие PiratBit!
    Комментировать посты могут только пользователи прошедшие не сложную регистрацию
    Показать сообщения:    

    Доброе утро, Вьетнам через торрент
    Скачать бесплатно Доброе утро, Вьетнам
    Доброе утро, Вьетнам скачать торрент
    Доброе утро, Вьетнам смотреть онлайн
    Cкачать фильм Доброе утро, Вьетнам бесплатно
    Доброе утро, Вьетнам скачать торрент в хорошем качестве
    Доброе утро, Вьетнам смотреть онлайн бесплатно в хорошем качестве


    Вы не можете начинать темы
    Вы не можете отвечать на сообщения
    Вы не можете редактировать свои сообщения
    Вы не можете удалять свои сообщения
    Вы не можете голосовать в опросах
    Вы не можете прикреплять файлы к сообщениям
    Вы можете скачивать файлы