2 сезон

iTunes

MVO

1

2 сезон

iTunes

iTunes

1 сезон

RePack

30

Новинка

ВАЖНО

ИГРА 18+

pack

RePack

MK11
pack

Легкие деньги

RePack

jed

RePack

fifa19

RePack

RDR2

RePack

NEED FOR SPEED™ PAYBACK

4 сезон

9 сезон

Бесстыжие 9 сезон

Все сериалы

все сериалы на PB.wtf

RePack

FAR CRY 5

Anonymous, добрый день, мы не успеваем собрать деньги на оплату серверов за декабрь и январь, помогите нам пожалуйста в это трудное время. В качестве благодарности мы отключим Вам всю рекламу на сайте (укажите свой ник в строку Ваше имя)!

×
  
Magnet ссылка

Золото Маккенны / Mackenna's Gold (Дж. Ли Томпсон) [1969, мелодрама, вестерн, приключения, BDRip 720p 60 fps] DUB pb.wtf

Золото Маккенны через торрент pb.wtf

Раздают: 2 [ 0 KB/s ] Качают: 1 [ 0 KB/s ]
Размер: 5.87 GB | Добавлен: 3 года 9 мес. назад | Торрент скачан:111 раз
Скачать  

11-04-2017 18:17 Золото Маккенны Скачать торрент  

Золото Маккенны / Mackenna's Gold

Год выпуска: 1969
Страна: США
Жанр: мелодрама, вестерн, приключения

Продолжительность: 02:08:16
Перевод: Дубляж, Профессиональный [многоголосый]
Оригинальный
Субтитры: русские,
английские,
Режиссер: Дж. Ли Томпсон
В ролях: Грегори Пек (Sheriff Mackenna), Омар Шариф (John Colorado), Телли Савалас (Sergeant Tibbs), Камилла Спарв (Inga Bergerman), Кинен Уинн (Sanchez), Джули Ньюмар (Hesh-Ke), Тед Кэссиди (Hachita), Ли Дж. Кобб (The Editor), Рэймонд Мэсси (The Preacher), Бёрджесс Мередит (The Storekeeper), Энтони Куэйл (Older Englishman), Эдвард Дж. Робинсон (Old Adams)
Описание:
Благодаря случайным обстоятельствам шериф Маккенна узнает о том, где спрятано золото древнего индейского племени. В качестве «живой карты» он становится заложником бандита Колорадо, который мечтает найти каньон «дьявольское наваждение»... К группе головорезов примыкают все новые и новые охотники за богатством, но далеко не всем суждено будет добраться до цели. Тем более вернуться живыми, ведь на пути к заветной цели их ждет неизвестность...
Рейтинг:

Автор релиза: Аман Абди
Качество: BDRip 720p
Формат: MKV
Видео: AVC, 1280x544 (2.35:1), 5500 kbps, 59,940 fps, 0,132 bpp
Аудио №1: русский / AC3 / 2.0 / 48 kHz / 224 kbps / ||
Аудио №2: русский / AC3 / 5.1 / 48 kHz / 384 kbps / ||
Аудио №3: английский / AC3 / 5.1 / 48 kHz / 448 kbps /

General
Unique ID : 198754042118959500207193430352295936139 (0x9586A2D951172E958441522026BCC08B)
Complete name : C:\Users\Aman\Documents\Золото Маккенны 720p 60 FPS.mkv
Format : Matroska
Format version : Version 4 / Version 2
File size : 5.87 GiB
Duration : 2 h 8 min
Overall bit rate : 6 551 kb/s
Encoded date : UTC 2017-04-11 20:29:06
Writing application : mkvmerge v9.2.0 ('Photograph') 64bit
Writing library : libebml v1.3.3 + libmatroska v1.4.4

Video
ID : 6
Format : AVC
Format/Info : Advanced Video Codec
Format profile : High@L4.1
Format settings, CABAC : Yes
Format settings, ReFrames : 9 frames
Codec ID : V_MPEG4/ISO/AVC
Duration : 2 h 8 min
Bit rate : 5 500 kb/s
Width : 1 280 pixels
Height : 544 pixels
Display aspect ratio : 2.35:1
Frame rate mode : Constant
Frame rate : 59.940 (59940/1000) FPS
Color space : YUV
Chroma subsampling : 4:2:0
Bit depth : 8 bits
Scan type : Progressive
Bits/(Pixel*Frame) : 0.132
Stream size : 4.91 GiB (84%)
Writing library : x264 core 146 r2538 121396c
Encoding settings : cabac=1 / ref=9 / deblock=1:0:0 / analyse=0x3:0x113 / me=umh / subme=9 / psy=1 / psy_rd=1.00:0.10 / mixed_ref=1 / me_range=32 / chroma_me=1 / trellis=2 / 8x8dct=1 / cqm=0 / deadzone=21,11 / fast_pskip=0 / chroma_qp_offset=-3 / threads=6 / lookahead_threads=1 / sliced_threads=0 / nr=0 / decimate=1 / interlaced=0 / bluray_compat=0 / constrained_intra=0 / bframes=16 / b_pyramid=2 / b_adapt=2 / b_bias=0 / direct=3 / weightb=1 / open_gop=0 / weightp=2 / keyint=250 / keyint_min=25 / scenecut=40 / intra_refresh=0 / rc_lookahead=40 / rc=2pass / mbtree=1 / bitrate=5500 / ratetol=1.0 / qcomp=0.60 / qpmin=0 / qpmax=69 / qpstep=4 / cplxblur=20.0 / qblur=0.5 / vbv_maxrate=14000 / vbv_bufsize=14000 / nal_hrd=none / filler=0 / ip_ratio=1.40 / aq=1:1.00
Language : English
Default : Yes
Forced : No

Audio #1
ID : 1
Format : AC-3
Format/Info : Audio Coding 3
Mode extension : CM (complete main)
Format settings, Endianness : Big
Codec ID : A_AC3
Duration : 2 h 8 min
Bit rate mode : Constant
Bit rate : 224 kb/s
Channel(s) : 2 channels
Channel positions : Front: L R
Sampling rate : 48.0 kHz
Frame rate : 31.250 FPS (1536 spf)
Compression mode : Lossy
Stream size : 205 MiB (3%)
Language : Russian
Default : Yes
Forced : No

Audio #2
ID : 2
Format : AC-3
Format/Info : Audio Coding 3
Mode extension : CM (complete main)
Format settings, Endianness : Big
Codec ID : A_AC3
Duration : 2 h 8 min
Bit rate mode : Constant
Bit rate : 384 kb/s
Channel(s) : 6 channels
Channel positions : Front: L C R, Side: L R, LFE
Sampling rate : 48.0 kHz
Frame rate : 31.250 FPS (1536 spf)
Compression mode : Lossy
Stream size : 352 MiB (6%)
Language : Russian
Default : No
Forced : No

Audio #3
ID : 3
Format : AC-3
Format/Info : Audio Coding 3
Mode extension : CM (complete main)
Format settings, Endianness : Big
Codec ID : A_AC3
Duration : 2 h 8 min
Bit rate mode : Constant
Bit rate : 448 kb/s
Channel(s) : 6 channels
Channel positions : Front: L C R, Side: L R, LFE
Sampling rate : 48.0 kHz
Frame rate : 31.250 FPS (1536 spf)
Compression mode : Lossy
Stream size : 411 MiB (7%)
Language : English
Default : No
Forced : No

Text #1
ID : 4
Format : PGS
Muxing mode : zlib
Codec ID : S_HDMV/PGS
Codec ID/Info : Picture based subtitle format used on BDs/HD-DVDs
Duration : 2 h 7 min
Bit rate : 3 657 b/s
Count of elements : 2202
Stream size : 3.33 MiB (0%)
Language : Russian
Default : Yes
Forced : No

Text #2
ID : 5
Format : PGS
Muxing mode : zlib
Codec ID : S_HDMV/PGS
Codec ID/Info : Picture based subtitle format used on BDs/HD-DVDs
Duration : 2 h 5 min
Bit rate : 3 523 b/s
Count of elements : 1830
Stream size : 3.15 MiB (0%)
Language : English
Default : No
Forced : No
pb.wtf



Скачать Золото Маккенны через торрент http://i91.fastpic.ru/big/2017/0411/0c/5ddb21759d53d1eea809c40216168a0c.jpg Скачать фильм Золото Маккенны через торрент бесплантно в хорошем качестве Описание: Благодаря случайным обстоятельствам шериф Маккенна узнает о том, где спрятано золото древнего индейского племени. В качестве ... 8.7 10 7
Info! Золотая раздача, скачанное не засчитывается.
Торрент: Зарегистрирован [2017-04-11 18:17] · скачан: 111 раз
Статус: √ проверено
Размер: 5.87 GB
Как cкачать? Как скачать Золото Маккенны через торрент | UTorrent



Последний раз редактировалось: Amantaigo (2017-04-13 17:24), всего редактировалось 2 раз(а)

28-11-2019 20:33  

Отключить всю рекламу на сайте

11-04-2017 18:20 Золото Маккенны Скачать торрент  

01-09-2018 14:05 Золото Маккенны Скачать торрент  

Спасибо за любимый фильм из молодости,ходили на него с друзьями по несколько раз,даже фотографировали с экрана в кинотеатре Космос-есть что вспомнить!Ещще раз Спасибо!pb.wtf



    Дорогой пользователь! Огромная просьба, поблагодарите релизера, оцените раздачу и оставьте свои комментарий, если Вы скачали Золото Маккенны через торрент бесплатно! Внесите свою лепту в развитие PiratBit!
    Комментировать посты могут только пользователи прошедшие не сложную регистрацию
    Показать сообщения:    

    Золото Маккенны через торрент
    Скачать бесплатно Золото Маккенны
    Золото Маккенны скачать торрент
    Золото Маккенны смотреть онлайн
    Cкачать фильм Золото Маккенны бесплатно
    Золото Маккенны скачать торрент в хорошем качестве
    Золото Маккенны смотреть онлайн бесплатно в хорошем качестве


    Вы не можете начинать темы
    Вы не можете отвечать на сообщения
    Вы не можете редактировать свои сообщения
    Вы не можете удалять свои сообщения
    Вы не можете голосовать в опросах
    Вы не можете прикреплять файлы к сообщениям
    Вы можете скачивать файлы