Ссылка на приватное зеркало нашего сайта всего за 1$. Внимание количество ограничено!!!

2 сезон

iTunes

1 сезон

1

2 сезон

2 сезон

iTunes

1 сезон

RePack

30

Ultimate

ВАЖНО

ИГРА 18+

pack

RePack

MK11
pack

Забери бонус

RePack

jed

!!Акция!!

Alien_Rage

RePack

fifa19

RePack

Assassins Creed: Odyssey

RePack

NEED FOR SPEED™ PAYBACK

4 сезон

9 сезон

Бесстыжие 9 сезон

Все сериалы

все сериалы на PB.wtf

RePack

FAR CRY 5
  

13 причин, почему / 13 Reasons Why / 1 сезон / 1-13 серии из 13 (Брайан Йорки) [2017, триллер, драма, детектив, WEBRip] MVO [NewStudio] pb.wtf

13 причин, почему через торрент pb.wtf

Размер: 7.97 GB | Добавлен: 3 года 7 мес. назад | Торрент скачан:270 раз
Скачать  

11-04-2017 19:10 13 причин, почему Скачать торрент  

13 причин, почему / 13 Reasons WhyГод выпуска: 2017
Страна: США
Жанр: триллер, драма, детектив
Всего серий: 13
Продолжительность: 13 x ~00:55:00
Перевод: Профессиональный многоголосый -
Субтитры: отсутствуют

Режиссер: Брайан Йорки

rating

В ролях:

Кэтрин Лангфорд (Ханна Бейкер), Джастин Прентин (Брайс Уокер), Дилан Миннетт (Клэй Дженсен), Аджиона Алексус (Шери), Мишель Селена Анг (Кортни), Алиша Бо (Джессика), Брэндон Флинн (Джастин), Росс Батлер (Зак), Брэндон Ларракуэнте (Джефф), Тимоти Гранадерос (Монтгомери) и др.



Описание:

Сериал является экранизацией одноименного бестселлера Джея Эшера.

Клэй Дженсен однажды находит на пороге своего дома коробку. Внутри обнаруживаются аудиокассеты, записанные Ханной Бейкер. Он был влюблен в эту девушку в школе, пока она однажды не покончила жизнь самоубийством. В своих записях Ханна указала 13 причин, которые толкнули её на это.


Качество: WEBRip
Формат: AVI
Видео кодек: XviD
Аудио кодек: MP3

Видео: 720x400 (1.80:1), 23,976 fps, XviD build 64 ~1326 kbps avg, 0.192 bit/pixel
Аудио#1: RUS: 48 kHz, MPEG Layer 3, 2 ch, ~128.00 kbps avg
Аудио#2: ENG: 48 kHz, MPEG Layer 3, 2 ch, ~128.00 kbps avg
скриншот   скриншот   скриншот   скриншот   скриншот  

Общее
Полное имя : D:\13 Reasons Why (Season 01)\13.Reasons.Why.S01E01.XviD.NewStudio.(qqss44).avi
Формат : AVI
Формат/Информация : Audio Video Interleave
Размер файла : 601 Мбайт
Продолжительность : 52 м. 38 с.
Общий поток : 1596 Кбит/сек
Программа кодирования : VirtualDubMod 1.5.10.3 | www.virtualdub-fr.org || (build 2550/release)
Библиотека кодирования : VirtualDubMod build 2550/release

Видео
Идентификатор : 0
Формат : MPEG-4 Visual
Профиль формата : Advanced Simple@L5
Параметр BVOP формата : 2
Параметр QPel формата : Нет
Параметр GMC формата : Без точки перехода
Параметр матрицы формата : Выборочная
Идентификатор кодека : XVID
Идентификатор кодека/Подсказка : XviD
Продолжительность : 52 м. 38 с.
Битрейт : 1326 Кбит/сек
Ширина : 720 пикселей
Высота : 400 пикселей
Соотношение сторон : 16:9
Частота кадров : 23,976 (23976/1000) кадра/сек
Цветовое пространство : YUV
Субдискретизация насыщенности : 4:2:0
Битовая глубина : 8 бит
Тип развёртки : Прогрессивная
Метод сжатия : С потерями
Бит/(Пиксели*Кадры) : 0.192
Размер потока : 499 Мбайт (83%)
Библиотека кодирования : XviD 73

Аудио #1
Идентификатор : 1
Формат : MPEG Audio
Версия формата : Version 1
Профиль формата : Layer 3
Режим : Joint stereo
Расширение режима : MS Stereo
Идентификатор кодека : 55
Идентификатор кодека/Подсказка : MP3
Продолжительность : 52 м. 38 с.
Вид битрейта : Постоянный
Битрейт : 128 Кбит/сек
Каналы : 2 канала
Частота : 48,0 КГц
Метод сжатия : С потерями
Размер потока : 48,2 Мбайт (8%)
Выравнивание : Соединение по промежуткам
Продолжительность промежутка : 42 мс. (1,00 видеокадр)
Время предзагрузки промежутка : 504 мс.

Аудио #2
Идентификатор : 2
Формат : MPEG Audio
Версия формата : Version 1
Профиль формата : Layer 3
Режим : Joint stereo
Расширение режима : MS Stereo
Идентификатор кодека : 55
Идентификатор кодека/Подсказка : MP3
Продолжительность : 52 м. 38 с.
Вид битрейта : Постоянный
Битрейт : 128 Кбит/сек
Каналы : 2 канала
Частота : 48,0 КГц
Метод сжатия : С потерями
Размер потока : 48,2 Мбайт (8%)
Выравнивание : Соединение по промежуткам
Продолжительность промежутка : 42 мс. (1,00 видеокадр)
Время предзагрузки промежутка : 504 мс.

pb.wtf



Скачать 13 причин, почему через торрент http://pic1.kartinco.top/images/11/lp2qd.jpg Скачать фильм 13 причин, почему через торрент бесплантно в хорошем качестве Описание: Сериал является экранизацией одноименного бестселлера Джея Эшера. Клэй Дженсен однажды находит на пороге своего дома коробку. ... 9.1 10 10
Info! Золотая раздача, скачанное не засчитывается.
Торрент: Зарегистрирован [2017-04-11 19:10] · скачан: 270 раз
Статус: √ проверено
Размер: 7.97 GB
Как cкачать? Как скачать 13 причин, почему через торрент | qTorrent

% Раздел Тема Автор DL S | L
Зарубежные сериалы [ 19.64 GB ] 13 причин почему / 13 Reasons Why / Сезон: 4 / Серии: 1-10 из 10 [2020 WEB-DL 1080p] MVO [Jaskier] bober100 Скачать
1 | 0
Зарубежные сериалы [ 12.41 GB ] 13 причин почему / 13 Reasons Why / Сезон: 4 / Серии: 1-10 из 10 [2020 WEB-DL 720p] MVO [Jaskier] bober100 Скачать
1 | 0
Зарубежные сериалы [ 7.33 GB ] 13 причин почему / 13 Reasons Why / Сезон: 4 / Серии: 1-10 из 10 [2020 WEB-DLRip] MVO [Jaskier] bober100 Скачать
1 | 0
Зарубежные сериалы [ 21.89 GB ] 13 причин почему / 13 Reasons Why / Сезон: 4 / Серии: 1-10 из 10 [2020 WEB-DL 1080p] killermax2013 Скачать
1 | 0
Зарубежные сериалы [ 57.96 GB ] 13 причин почему / 13 Reasons Why / Сезон: 1-4 / Серии: 1-59 из 59 [2017-2020 WEB-DLRip] DUB [BTI Studios & Пифагор / Netflix] bober100 Скачать
2 | 0
Зарубежные сериалы [ 83.53 GB ] 13 причин почему / 13 Reasons Why / Сезон: 1 / Серии: 0-13 из 13 [2017 WEBRip 1080p] MVO [TVShows] bober100 Скачать
1 | 0
Зарубежные сериалы [ 14.86 GB ] 13 причин почему / 13 Reasons Why / Сезон: 3 / Серии: 1-13 из 13 [2019 WEB-DL 720p] [MVO] killermax2013 Скачать
1 | 0

28-11-2019 20:33  

Отключить всю рекламу на сайте

12-04-2017 00:33 13 причин, почему Скачать торрент  

Отличнейший сериал! Да про суицид... но то, в каком ракурсе это преподноситься... в общем, тяжёлый сериал, но мне понравился! Если вы не любите такие темы, как диалоги, много диалогов, и считаете это тягомотиной, то рекомендую воздержаться от просмотра! Остальным же, можно попробовать)pb.wtf



13-04-2019 12:18 13 причин, почему Скачать торрент  

Ребят - Встаньте на раздачу пожалуйстаpb.wtf



    Дорогой пользователь! Огромная просьба, поблагодарите релизера, оцените раздачу и оставьте свои комментарий, если Вы скачали 13 причин, почему через торрент бесплатно! Внесите свою лепту в развитие PiratBit!
    Комментировать посты могут только пользователи прошедшие не сложную регистрацию
    Показать сообщения:    

    13 причин, почему через торрент
    Скачать бесплатно 13 причин, почему
    13 причин, почему скачать торрент
    13 причин, почему смотреть онлайн
    Cкачать фильм 13 причин, почему бесплатно
    13 причин, почему скачать торрент в хорошем качестве
    13 причин, почему смотреть онлайн бесплатно в хорошем качестве


    Вы не можете начинать темы
    Вы не можете отвечать на сообщения
    Вы не можете редактировать свои сообщения
    Вы не можете удалять свои сообщения
    Вы не можете голосовать в опросах
    Вы не можете прикреплять файлы к сообщениям
    Вы можете скачивать файлы