Ссылка на приватное зеркало нашего сайта всего за 1$. Внимание количество ограничено!!!

2 сезон

iTunes

1 сезон

1

2 сезон

2 сезон

iTunes

1 сезон

RePack

30

Ultimate

ВАЖНО

ИГРА 18+

pack

RePack

MK11
pack

Забери бонус

RePack

jed

!!Акция!!

Alien_Rage

RePack

fifa19

RePack

Assassins Creed: Odyssey

RePack

NEED FOR SPEED™ PAYBACK

4 сезон

9 сезон

Бесстыжие 9 сезон

Все сериалы

все сериалы на PB.wtf

RePack

FAR CRY 5
  

Лучше звоните Солу / Better Call Saul / Сезон: 3 / Серии: 1-10 из 10 (Колин Бакси, Адам Бернштейн, Винс Гиллиган) [2017, Драма, комедия, криминал, WEB-DLRip] MVO [IdeaFilm] pb.wtf

Лучше звоните Солу через торрент pb.wtf

Размер: 7.56 GB | Добавлен: 2 года 3 мес. назад | Торрент скачан:23 раза
Скачать  

11-04-2017 19:34 Лучше звоните Солу Скачать торрент  

Лучше звоните Солу / Better Call SaulГод выпуска: 2017
Страна: США
Жанр: Драма, комедия, криминал
Продолжительность: ~00:53:00
Перевод: Любительский (многоголосый) - [IdeaFilm]
Субтитры: отсутствуют

Режиссер: Колин Бакси, Адам Бернштейн, Винс Гиллиган

rating

В ролях:

Боб Оденкёрк, Джонатан Бэнкс, Ри Сихорн, Майкл МакКин, Патрик Фабиан, Майкл Мэндо, Керри Кондон, Эйлин Фогарти, Стив Ларесэ, Джули Энн Эмери, Джереми Шамос, Виктория Пэм-Гилкрист, Ким Лан Т. Пэм, Пау Тхи Дуонг, Дэннис Буцикарис, Ген Н. Чавес, Брайан Барела, Винсент Фуэнтес, Эд Бегли мл., Марк Прокш

Описание:

История об испытаниях и невзгодах, которые приходится преодолеть Солу Гудману, адвокату по уголовным делам, в тот период, когда он пытается открыть свою собственную адвокатскую контору в Альбукерке, штат Нью-Мексико.

Качество: WEB-DLRip
Формат: AVI
Видео кодек: XviD
Аудио кодек: AC3

Видео: 720x400 (1.80:1), 23.976 fps, XviD MPEG-4 ~1701 kbps avg, 0.25 bit/pixel
Аудио#1: Rus: 48 kHz, AC3 Dolby Digital, 3/2 (L,C,R,l,r) + LFE ch, ~384 kbps
скриншот   скриншот   скриншот   скриншот  

General
Complete name : D:\IdeaFilm\Better.Call.Saul.S03.WEB-DLRip\Better.Call.Saul.S03E01.WEB-DLRip.IdeaFilm.avi
Format : AVI
Format/Info : Audio Video Interleave
File size : 786 MiB
Duration : 52 min 29 s
Overall bit rate : 2 095 kb/s
Writing library : VirtualDub build 35576/release

Video
ID : 0
Format : MPEG-4 Visual
Format profile : Advanced Simple@L5
Format settings, BVOP : 2
Format settings, QPel : No
Format settings, GMC : No warppoints
Format settings, Matrix : Default (H.263)
Muxing mode : Packed bitstream
Codec ID : XVID
Codec ID/Hint : XviD
Duration : 52 min 29 s
Bit rate : 1 702 kb/s
Width : 720 pixels
Height : 400 pixels
Display aspect ratio : 16:9
Frame rate : 23.976 (24000/1001) FPS
Color space : YUV
Chroma subsampling : 4:2:0
Bit depth : 8 bits
Scan type : Progressive
Compression mode : Lossy
Bits/(Pixel*Frame) : 0.246
Stream size : 639 MiB (81%)
Writing library : XviD 73

Audio
ID : 1
Format : AC-3
Format/Info : Audio Coding 3
Format settings, Endianness : Big
Codec ID : 2000
Duration : 52 min 29 s
Bit rate mode : Constant
Bit rate : 384 kb/s
Channel(s) : 6 channels
Channel positions : Front: L C R, Side: L R, LFE
Sampling rate : 48.0 kHz
Frame rate : 31.250 FPS (1536 spf)
Bit depth : 16 bits
Compression mode : Lossy
Stream size : 144 MiB (18%)
Alignment : Aligned on interleaves
Interleave, duration : 42 ms (1.00 video frame)
Interleave, preload duratio : 512 ms
Service kind : Complete Main

Внимание! Раздача ведётся путём добавления новых серий; при каждом добавлении создаётся новый торрент. Чтобы начать докачку новой серии, пользователям необходимо сделать следующее:
(1) остановить скачивание,
(2) удалить старый торрент у себя из клиента (старые серии удалять не надо),
(3) скачать новый торрент и запустить его у себя в клиенте вместо старого, при этом указать клиенту путь в старую папку куда и должно происходить скачивание новых серий.

Ваш клиент при этом должен произвести хеширование (проверку) старой папки (если не производит сам - помогите ему сделать это), и будет докачивать только те серии которых у вас ещё нет. Старые серии при этом не удаляются, а продолжают раздаваться!

Eсли вы уже удалили старые серии, то предотвратить повторную закачку старых серий можно, отжав галочку в соответствующих местах при запуске нового торрента. По возможности, желательно не удалять старые серии как можно дольше, чтобы релизёр не столько продолжал раздавать старые серии, а смог сконцентрироваться на новых.
pb.wtf



Скачать Лучше звоните Солу через торрент http://s50.radikal.ru/i128/1704/01/38476ea3b49a.jpg Скачать фильм Лучше звоните Солу через торрент бесплантно в хорошем качестве Описание: История об испытаниях и невзгодах, которые приходится преодолеть Солу Гудману, адвокату по уголовным делам, в тот период, когда ... 10 10 4
Торрент: Зарегистрирован [2018-07-30 20:10] · скачан: 23 раз
Статус: √ проверено
Размер: 7.56 GB
Как cкачать? Как скачать Лучше звоните Солу через торрент | qTorrent

% Раздел Тема Автор DL S | L
Зарубежные сериалы [ 31.59 GB ] Лучше звоните Солу / Better Call Saul / Сезон: 3 / Серии: 1-10 из 10 [2017 WEBRip 1080p] DVO [Кубик в Кубе] bober100 Скачать
1 | 0
# Зарубежные сериалы [ 12.43 GB ] Лучше звоните Солу / Better call Saul / Сезон 1-3 / Серии 1-30 из 30 [2015-2017 BDRip-HEVC 1080p ] DVO aksaleale Скачать
2 | 0
Зарубежные сериалы [ 10.44 GB ] Лучше звоните Солу / Better Call Saul / Сезон: 3 / Серии 1-10 из 10 [2017 WEBRip] [DVO] killermax2013 Скачать
1 | 0
Зарубежные сериалы [ 6.25 GB ] Лучше звоните Солу / Better Call Saul / Сезон: 3 / Серии 1-10 из 10 [2017 WEB-DLRip] [MVO] killermax2013 Скачать
1 | 0
Зарубежные сериалы [ 6.18 GB ] Лучше звоните Солу / Better Call Saul / Сезон: 3 / Серии 1-10 из 10 [2017 WEB-DLRip] [MVO] killermax2013 Скачать
1 | 0
Зарубежные сериалы [ 6.84 GB ] Лучше звоните Солу / Better Call Saul / Сезон: 3 / Серии 1-10 из 10 [2017 WEB-DLRip] MVO [Кравец] GEKADOL Скачать
1 | 1
Зарубежные сериалы [ 16.29 GB ] Лучше звоните Солу / Better Call Saul / Сезон: 3 / Серии 1-10 из 10 [2017 WEB-DL 720p] MVO [Кравец] GEKADOL Скачать
1 | 0

28-11-2019 20:33  

Отключить всю рекламу на сайте

    Дорогой пользователь! Огромная просьба, поблагодарите релизера, оцените раздачу и оставьте свои комментарий, если Вы скачали Лучше звоните Солу через торрент бесплатно! Внесите свою лепту в развитие PiratBit!
    Комментировать посты могут только пользователи прошедшие не сложную регистрацию
    Показать сообщения:    

    Лучше звоните Солу через торрент
    Скачать бесплатно Лучше звоните Солу
    Лучше звоните Солу скачать торрент
    Лучше звоните Солу смотреть онлайн
    Cкачать фильм Лучше звоните Солу бесплатно
    Лучше звоните Солу скачать торрент в хорошем качестве
    Лучше звоните Солу смотреть онлайн бесплатно в хорошем качестве


    Вы не можете начинать темы
    Вы не можете отвечать на сообщения
    Вы не можете редактировать свои сообщения
    Вы не можете удалять свои сообщения
    Вы не можете голосовать в опросах
    Вы не можете прикреплять файлы к сообщениям
    Вы можете скачивать файлы