2 сезон

iTunes

MVO

1

2 сезон

iTunes

iTunes

1 сезон

RePack

30

Новинка

ВАЖНО

ИГРА 18+

pack

RePack

MK11
pack

Легкие деньги

RePack

jed

RePack

fifa19

RePack

RDR2

RePack

NEED FOR SPEED™ PAYBACK

4 сезон

9 сезон

Бесстыжие 9 сезон

Все сериалы

все сериалы на PB.wtf

RePack

FAR CRY 5

Anonymous, доброй ночи, мы не успеваем собрать деньги на оплату серверов за декабрь и январь, помогите нам пожалуйста в это трудное время. В качестве благодарности мы отключим Вам всю рекламу на сайте (укажите свой ник в строку Ваше имя)!

×
  
Magnet ссылка

Бриллиантовый картель / Diamond Cartel (Саламат Мухаммед-Али ) [2017, боевик, приключения, WEB-DLRip] Любительский (многоголосый) pb.wtf

Бриллиантовый картель через торрент pb.wtf

Размер: 1.46 GB | Добавлен: 3 года 9 мес. назад | Торрент скачан:384 раза
Скачать  

12-04-2017 03:09 Бриллиантовый картель Скачать торрент  

Бриллиантовый картель / Diamond Cartel

Год выпуска: 2017
Страна: Казахстан
Жанр: боевик, приключения
Продолжительность: 01:41:27
Перевод: Любительский (многоголосый) ["Синема УС"]
Режиссер: Саламат Мухаммед-Али
В ролях: Арманд Ассанте (Mussa), Питер О’Тул (Tugboat), Оливье Грюнер (Tony), Том ’Тайни’ Листер мл. (Tom), Майкл Мэдсен, Кэри-Хироюки Тагава (Khazar), Дон «Дракон» Уилсон, Боло Йен
Описание:
Харизматичный и безжалостный Мусса покупает в Гонконге у босса местных триад легендарный алмаз - Звезду Востока. Но камень не успевает попасть в руки нового хозяина. Его наёмники Алия и Руслан, в прошлом - любовники, похищают Звезду и пытаются сбежать с ней из страны.
Рейтинг:

Качество: WEB-DLRip
Формат: AVI
Видео: XviD, 720x304 (2.35:1), 1663 kbps, 23,976 fps, 0,317 bpp
Аудио: AC3 / 2.0 / 48 kHz / 384 kbps /

General
Complete name : D:\Proba\Diamond.Cartel.2017.P.WEB-DLRip.14OOMB_KOSHARA.avi
Format : AVI
Format/Info : Audio Video Interleave
File size : 1.46 GiB
Duration : 1 h 41 min
Overall bit rate : 2 057 kb/s
Writing application : VirtualDubMod 1.5.10.2 (build 2540/release)
Writing library : VirtualDubMod build 2540/release

Video
ID : 0
Format : MPEG-4 Visual
Format profile : Advanced Simple@L5
Format settings, BVOP : 2
Format settings, QPel : No
Format settings, GMC : No warppoints
Format settings, Matrix : Default (MPEG)
Codec ID : XVID
Codec ID/Hint : XviD
Duration : 1 h 41 min
Bit rate : 1 663 kb/s
Width : 720 pixels
Height : 304 pixels
Display aspect ratio : 2.35:1
Frame rate : 23.976 (24000/1001) FPS
Color space : YUV
Chroma subsampling : 4:2:0
Bit depth : 8 bits
Scan type : Progressive
Compression mode : Lossy
Bits/(Pixel*Frame) : 0.317
Stream size : 1.18 GiB (81%)
Writing library : XviD 1.2.1 (UTC 2008-12-04)

Audio
ID : 1
Format : AC-3
Format/Info : Audio Coding 3
Mode extension : CM (complete main)
Format settings, Endianness : Big
Codec ID : 2000
Duration : 1 h 41 min
Bit rate mode : Constant
Bit rate : 384 kb/s
Channel(s) : 2 channels
Channel positions : Front: L R
Sampling rate : 48.0 kHz
Frame rate : 31.250 FPS (1536 spf)
Compression mode : Lossy
Stream size : 279 MiB (19%)
Alignment : Split accross interleaves
Interleave, duration : 42 ms (1.00 video frame)
Interleave, preload duration : 500 ms


Имеется рекламаpb.wtf



Скачать Бриллиантовый картель через торрент http://i4.imageban.ru/out/2017/04/12/5269c56516f0fbef994e2ffd8a008faf.jpg Скачать фильм Бриллиантовый картель через торрент бесплантно в хорошем качестве Описание: Харизматичный и безжалостный Мусса покупает в е у босса местных триад легендарный алмаз - Звезду Востока. Но камень не ... 9.3 10 18
Торрент: Зарегистрирован [2017-04-12 03:09] · скачан: 384 раз
Статус: T временная
Размер: 1.46 GB
Как cкачать? Как скачать Бриллиантовый картель через торрент | UTorrent

28-11-2019 20:33  

Отключить всю рекламу на сайте

12-04-2017 05:44 Бриллиантовый картель Скачать торрент  

Не понял я как в 17-м году мог сниматься Питер О-Тул?! Или это какой-то казахский О-Тул? Асанте, Тагава - неужели никто больше не снимает пацанов, раз они в казахское кино подались?pb.wtf



12-04-2017 06:55 Бриллиантовый картель Скачать торрент  

spellscape писал(а):

Не понял я как в 17-м году мог сниматься Питер О-Тул?! Или это какой-то казахский О-Тул? Асанте, Тагава - неужели никто больше не снимает пацанов, раз они в казахское кино подались?

....фильм уже давно снят....в 15ом году у него даже другое название было - Весь мир у наших ногpb.wtf



12-04-2017 14:31 Бриллиантовый картель Скачать торрент  

Таких актеров как Кэри-Хироюки Тагава (Khazar), Дон «Дракон» Уилсон, Боло Йен надо в первую очередь писать, а не как здесь - в конце.pb.wtf



12-04-2017 18:28 Бриллиантовый картель Скачать торрент  

meridianov писал(а):

Таких актеров как Кэри-Хироюки Тагава (Khazar), Дон «Дракон» Уилсон, Боло Йен надо в первую очередь писать, а не как здесь - в конце.

yes yes yespb.wtf



    Дорогой пользователь! Огромная просьба, поблагодарите релизера, оцените раздачу и оставьте свои комментарий, если Вы скачали Бриллиантовый картель через торрент бесплатно! Внесите свою лепту в развитие PiratBit!
    Комментировать посты могут только пользователи прошедшие не сложную регистрацию
    Показать сообщения:    

    Бриллиантовый картель через торрент
    Скачать бесплатно Бриллиантовый картель
    Бриллиантовый картель скачать торрент
    Бриллиантовый картель смотреть онлайн
    Cкачать фильм Бриллиантовый картель бесплатно
    Бриллиантовый картель скачать торрент в хорошем качестве
    Бриллиантовый картель смотреть онлайн бесплатно в хорошем качестве


    Вы не можете начинать темы
    Вы не можете отвечать на сообщения
    Вы не можете редактировать свои сообщения
    Вы не можете удалять свои сообщения
    Вы не можете голосовать в опросах
    Вы не можете прикреплять файлы к сообщениям
    Вы можете скачивать файлы