2 сезон

iTunes

1 сезон

1

iTunes

iTunes

iTunes

1 сезон

RePack

30

ИГРА 18+

pack

ВАЖНО

!!Акция!!

Alien_RageХит недели

RePack

MK11
pack

Забери бонус

RePack

jed

!!Акция!!

Alien_Rage

RePack

fifa19

RePack

Assassins Creed: Odyssey

RePack

NEED FOR SPEED™ PAYBACK

4 сезон

9 сезон

Бесстыжие 9 сезон

Все сериалы

все сериалы на PB.wtf

RePack

FAR CRY 5
  

Кейт и Лео (Режиссёрская версия) / Kate & Leopold (Director's cut) (Джеймс Мэнголд) [2001, фэнтези, мелодрама, комедия, BDRip 720p by msltel] DUB, MVO, AVO, VO pb.wtf

Кейт и Лео через торрент pb.wtf

Размер: 6.25 GB | Добавлен: 3 года 6 мес. назад | Торрент скачан:112 раз
Скачать  

12-04-2017 05:54 Кейт и Лео Скачать торрент  

Название: Кейт и Лео
Оригинальное название: Kate & Leopold
Год выпуска: 2001
Страна: США
Жанр: фэнтези, мелодрама, комедия
Продолжительность: 02:03:00
Перевод: дублированный, профессиональный многоголосый, авторский, любительский одноголосый

Режиссёр: Джеймс Мэнголд

В ролях: Мег Райан, Хью Джекман, Лив Шрайбер, Брекин Мейер, Наташа Лионн, Бредли Уитфорд, Пэкстон Уайтхед, Сполдинг Грей, Джош Стэмберг, Мэттью Суссман, Шарлотта Айянна, Филип Боско, Эндрю Джек, Стэн Трэйси, Кристен Шааль, Уильям Санфорд, Артур Дж. Наскарелла, Роберт Рэй Мэннинг мл., Рома Торре, Виола Дэвис, Рей Сейден, Джонатан Фрид, Коул Хоукинс, Стефани Монтальво, Эбони Джо-Энн, Джордж Хан, Джо Моссо, Корнелиус Патрик Бирн, Чезз Менендес, Брэндон Пэрриш

Описание: Сквозь прореху во времени Лео, герцог Олбанский, попадает в будущее, а точнее — в современный Нью-Йорк. Обаятельный джентльмен XIX столетия неожиданно оказывается в стремительном мире, где успешно завоёвывает высоты деловая женщина Кейт Маккей. Невероятное случилось, и они встретились! Теперь Лео нельзя оставлять без присмотра ни на минуту! Во всяком случае, до тех пор, пока он не сможет вернуться обратно...



Качество: BDRip 720p
Формат: MKV
Видео: MPEG-4 AVC, 5353 Kбит/с, 1280x720, 23,976 кадра/с
Аудио 1: русский, AC3, 448 kbps, 6 ch, 48 kHz [дублированный, со вставками MVO R5 West]
Аудио 2: русский, AC3, 384 kbps, 6 ch, 48 kHz [профессиональный многоголосый, R5 West]
Аудио 3: русский, AC3, 448 kbps, 6 ch, 48 kHz [авторский, Андрей Гаврилов]
Аудио 4: русский, AC3, 192 kbps, 2 ch, 48 kHz [любительский одноголосый, VHS]
Аудио 5: английский, AC3, 448 kbps, 6 ch, 48 kHz [оригинал]
Субтитры 1: русские
Субтитры 2: английские
Имеются неименованные главы/чаптеры.
Общее
Уникальный идентификатор : 207349071848357821241222296207457909035 (0x9BFDFA883D925E6DA1A5539861B5F92B)
Полное имя : D:\Video\Кейт и Лео..2001.DirCut.BDRip.720p by msltel.mkv
Формат : Matroska
Версия формата : Version 4 / Version 2
Размер файла : 6,25 Гбайт
Продолжительность : 2 ч. 3 м.
Общий поток : 7276 Кбит/сек
Название фильма : Rip by msltel
Дата кодирования : UTC 2017-04-12 01:55:07
Программа кодирования : mkvmerge v8.2.0 ('World of Adventure') 64bit
Библиотека кодирования : libebml v1.3.1 + libmatroska v1.4.2

Видео
Идентификатор : 1
Формат : AVC
Формат/Информация : Advanced Video Codec
Профиль формата : High@L4.1
Параметр CABAC формата : Да
Параметр ReFrames формата : 9 кадров
Идентификатор кодека : V_MPEG4/ISO/AVC
Продолжительность : 2 ч. 3 м.
Битрейт : 5353 Кбит/сек
Ширина : 1280 пикселей
Высота : 720 пикселей
Соотношение сторон : 16:9
Режим частоты кадров : Постоянный
Частота кадров : 23,976 (24000/1001) кадра/сек
Цветовое пространство : YUV
Субдискретизация насыщенности : 4:2:0
Битовая глубина : 8 бит
Тип развёртки : Прогрессивная
Бит/(Пиксели*Кадры) : 0.242
Размер потока : 4,60 Гбайт (74%)
Библиотека кодирования : x264 core 146 r2538 121396c
Настройки программы : cabac=1 / ref=9 / deblock=1:-3:-2 / analyse=0x3:0x113 / me=umh / subme=11 / psy=1 / psy_rd=1.00:0.15 / mixed_ref=1 / me_range=32 / chroma_me=1 / trellis=2 / 8x8dct=1 / cqm=0 / deadzone=21,11 / fast_pskip=0 / chroma_qp_offset=-3 / threads=6 / lookahead_threads=1 / sliced_threads=0 / nr=0 / decimate=1 / interlaced=0 / bluray_compat=0 / constrained_intra=0 / bframes=11 / b_pyramid=2 / b_adapt=2 / b_bias=0 / direct=1 / weightb=1 / open_gop=0 / weightp=2 / keyint=230 / keyint_min=23 / scenecut=40 / intra_refresh=0 / rc_lookahead=40 / rc=crf / mbtree=0 / crf=19.9 / qcomp=0.60 / qpmin=0 / qpmax=69 / qpstep=4 / vbv_maxrate=62500 / vbv_bufsize=78125 / crf_max=0.0 / nal_hrd=none / filler=0 / ip_ratio=1.40 / pb_ratio=1.30 / aq=1:1.00
Язык : English
Default : Да
Forced : Нет

Аудио #1
Идентификатор : 2
Формат : AC-3
Формат/Информация : Audio Coding 3
Параметр Endianness формата : Big
Идентификатор кодека : A_AC3
Продолжительность : 2 ч. 3 м.
Вид битрейта : Постоянный
Битрейт : 448 Кбит/сек
Каналы : 6 каналов
Расположение каналов : Front: L C R, Side: L R, LFE
Частота : 48,0 КГц
Частота кадров : 31,250 кадров/сек (1536 spf)
Битовая глубина : 16 бит
Метод сжатия : С потерями
Размер потока : 394 Мбайт (6%)
Заголовок : DUB (со вставками MVO R5 West)
Язык : Russian
ServiceKind/String : Complete Main
Default : Да
Forced : Нет

Аудио #2
Идентификатор : 3
Формат : AC-3
Формат/Информация : Audio Coding 3
Параметр Endianness формата : Big
Идентификатор кодека : A_AC3
Продолжительность : 2 ч. 3 м.
Вид битрейта : Постоянный
Битрейт : 384 Кбит/сек
Каналы : 6 каналов
Расположение каналов : Front: L C R, Side: L R, LFE
Частота : 48,0 КГц
Частота кадров : 31,250 кадров/сек (1536 spf)
Битовая глубина : 16 бит
Метод сжатия : С потерями
Размер потока : 338 Мбайт (5%)
Заголовок : MVO (R5 West)
Язык : Russian
ServiceKind/String : Complete Main
Default : Нет
Forced : Нет

Аудио #3
Идентификатор : 4
Формат : AC-3
Формат/Информация : Audio Coding 3
Параметр Endianness формата : Big
Идентификатор кодека : A_AC3
Продолжительность : 2 ч. 3 м.
Вид битрейта : Постоянный
Битрейт : 448 Кбит/сек
Каналы : 6 каналов
Расположение каналов : Front: L C R, Side: L R, LFE
Частота : 48,0 КГц
Частота кадров : 31,250 кадров/сек (1536 spf)
Битовая глубина : 16 бит
Метод сжатия : С потерями
Размер потока : 394 Мбайт (6%)
Заголовок : AVO (Андрей Гаврилов)
Язык : Russian
ServiceKind/String : Complete Main
Default : Нет
Forced : Нет

Аудио #4
Идентификатор : 5
Формат : AC-3
Формат/Информация : Audio Coding 3
Параметр Endianness формата : Big
Идентификатор кодека : A_AC3
Продолжительность : 2 ч. 2 м.
Вид битрейта : Постоянный
Битрейт : 192 Кбит/сек
Каналы : 2 канала
Расположение каналов : Front: L R
Частота : 48,0 КГц
Частота кадров : 31,250 кадров/сек (1536 spf)
Битовая глубина : 16 бит
Метод сжатия : С потерями
Размер потока : 169 Мбайт (3%)
Заголовок : любительский одноголосый, VHS
Язык : Russian
ServiceKind/String : Complete Main
Default : Нет
Forced : Нет

Аудио #5
Идентификатор : 6
Формат : AC-3
Формат/Информация : Audio Coding 3
Параметр Endianness формата : Big
Идентификатор кодека : A_AC3
Продолжительность : 2 ч. 3 м.
Вид битрейта : Постоянный
Битрейт : 448 Кбит/сек
Каналы : 6 каналов
Расположение каналов : Front: L C R, Side: L R, LFE
Частота : 48,0 КГц
Частота кадров : 31,250 кадров/сек (1536 spf)
Битовая глубина : 16 бит
Метод сжатия : С потерями
Размер потока : 394 Мбайт (6%)
Заголовок : original
Язык : English
ServiceKind/String : Complete Main
Default : Нет
Forced : Нет

Текст #1
Идентификатор : 7
Формат : UTF-8
Идентификатор кодека : S_TEXT/UTF8
Идентификатор кодека/Информация : UTF-8 Plain Text
Продолжительность : 1 ч. 57 м.
Битрейт : 111 бит/сек
ElementCount : 1547
Размер потока : 96,1 Кбайт (0%)
Заголовок : русские
Язык : Russian
Default : Нет
Forced : Нет

Текст #2
Идентификатор : 8
Формат : UTF-8
Идентификатор кодека : S_TEXT/UTF8
Идентификатор кодека/Информация : UTF-8 Plain Text
Продолжительность : 1 ч. 56 м.
Битрейт : 71 бит/сек
ElementCount : 1592
Размер потока : 61,1 Кбайт (0%)
Заголовок : английские
Язык : English
Default : Нет
Forced : Нет

Меню
00:00:00.000 : en:Chapter 1
00:05:28.828 : en:Chapter 2
00:14:00.256 : en:Chapter 3
00:19:56.362 : en:Chapter 4
00:25:43.917 : en:Chapter 5
00:30:47.262 : en:Chapter 6
00:37:32.667 : en:Chapter 7
00:45:02.325 : en:Chapter 8
00:51:00.849 : en:Chapter 9
00:57:04.463 : en:Chapter 10
01:03:24.592 : en:Chapter 11
01:08:17.802 : en:Chapter 12
01:15:48.043 : en:Chapter 13
01:21:39.520 : en:Chapter 14
01:32:02.308 : en:Chapter 15
01:40:43.955 : en:Chapter 16
pb.wtf



Скачать Кейт и Лео через торрент http://hostpic.gq/img/2017-04/12/feri5ct147fi4y86792oicnba.jpg Скачать фильм Кейт и Лео через торрент бесплантно в хорошем качестве Описание: Сквозь прореху во времени Лео, герцог Олбанский, попадает в будущее, а точнее — в современный Нью-Йорк. Обаятельный джентльмен ... 9.8 10 6
Info! Золотая раздача, скачанное не засчитывается.
Торрент: Зарегистрирован [2017-04-12 05:54] · скачан: 112 раз
Статус: √ проверено
Размер: 6.25 GB
Как cкачать? Как скачать Кейт и Лео через торрент | qTorrent

% Раздел Тема Автор DL S | L
Фильмы [HD 720p, 1080p] (Хороший звук DUB, MVO) [ 19.55 GB ] Кейт и Лео / Kate & Leopold [2001 BDRip 1080p by msltel] DUB MVO AVO VO msltel Скачать
1 | 0

28-11-2019 20:33  

Отключить всю рекламу на сайте

    Дорогой пользователь! Огромная просьба, поблагодарите релизера, оцените раздачу и оставьте свои комментарий, если Вы скачали Кейт и Лео через торрент бесплатно! Внесите свою лепту в развитие PiratBit!
    Комментировать посты могут только пользователи прошедшие не сложную регистрацию
    Показать сообщения:    

    Кейт и Лео через торрент
    Скачать бесплатно Кейт и Лео
    Кейт и Лео скачать торрент
    Кейт и Лео смотреть онлайн
    Cкачать фильм Кейт и Лео бесплатно
    Кейт и Лео скачать торрент в хорошем качестве
    Кейт и Лео смотреть онлайн бесплатно в хорошем качестве


    Вы не можете начинать темы
    Вы не можете отвечать на сообщения
    Вы не можете редактировать свои сообщения
    Вы не можете удалять свои сообщения
    Вы не можете голосовать в опросах
    Вы не можете прикреплять файлы к сообщениям
    Вы можете скачивать файлы