1 сезон

3 сезон

iTunes

1

iTunes

MVO

iTunes

13

1 сезон

RePack

30

Deluxe

pack

Лицензия

ВАЖНО

ИГРА 18+

pack

RePack

MK11

RePack

jed

RePack

fifa19

RePack

RDR2

RePack

NEED FOR SPEED™ PAYBACK

4 сезон

9 сезон

Бесстыжие 9 сезон

Все сериалы

все сериалы на PB.wtf

RePack

FAR CRY 5

Anonymous, доброй ночи, мы катастрофически не успеваем собрать деньги на оплату серверов, помогите нам пожалуйста 5,10,15р., для нас важна любая помощь . В качестве благодарности мы отключим Вам всю рекламу на сайте (укажите свой ник в строку Ваше имя)!

×
  
Magnet ссылка

Скрытые фигуры / Hidden Figures (Тед Мелфи) [2016, драма, биография, история, BDRip-AVC от R.G.Resident] Дубляж - [Лицензия / iTunes] pb.wtf

Скрытые фигуры через торрент pb.wtf

Размер: 2.29 GB | Добавлен: 4 года 3 мес. назад | Торрент скачан:290 раз
Скачать  

12-04-2017 08:43 Скрытые фигуры Скачать торрент  

Скрытые фигуры / Hidden Figures
««У гениальности нет расы. У силы нет пола. У мужества нет границ»»

Год выпуска: 2016
Страна: США
Жанр: драма, биография, история
Продолжительность: 02:06:45
Перевод: Дубляж - [Лицензия / iTunes]
Субтитры: русские (forced), русские (full), английские (full), английские (SDH)
Режиссер: Тед Мелфи
В ролях:

Тараджи П. Хенсон (Katherine G. Johnson), Октавия Спенсер (Dorothy Vaughan), Жанель Моне (Mary Jackson), Кевин Костнер (Al Harrison), Кирстен Данст (Vivian Mitchell), Джим Парсонс (Paul Stafford), Махершала Али (Colonel Jim Johnson), Элдис Ходж (Levi Jackson), Глен Пауэлл (John Glenn), Кимберли Куинн (Ruth), Олек Крупа (Karl Zielinski), Курт Краузе (Sam Turner)
Описание:
Команда афроамериканок проводит для НАСА ряд математических вычислений, необходимых для запуска первой космической миссии.
Мировая премьера: 25 декабря 2016

MPAA: PG - Рекомендуется присутствие родителей
Качество: BDRip-AVC Rip by
Формат: MKV
Видео: AVC, 1024x428 (2.40:1), 1764 kbps, 23,976 fps, 0,168 bpp
Аудио №1: русский / AC3 / 5.1 / 48 kHz / 384 kbps /
Аудио №2: английский / AC3 / 5.1 / 48 kHz / 448 kbps /
General
Unique ID : 201783604873217090065314148975781384568 (0x97CE1BD32F49D0139D4940F7A1A49178)
Complete name : D:\download\Hidden Figures.2016.BDRip-AVC by schultz R.G.Resident.mkv
Format : Matroska
Format version : Version 4 / Version 2
File size : 2.29 GiB
Duration : 2 h 6 min
Overall bit rate : 2 591 kb/s
Encoded date : UTC 2017-04-12 08:09:21
Writing application : mkvmerge v8.9.0 ('Father Daughter') 64bit
Writing library : libebml v1.3.3 + libmatroska v1.4.4

Video
ID : 1
Format : AVC
Format/Info : Advanced Video Codec
Format profile : High@L4.1
Format settings, CABAC : Yes
Format settings, ReFrames : 12 frames
Codec ID : V_MPEG4/ISO/AVC
Duration : 2 h 6 min
Bit rate : 1 764 kb/s
Width : 1 024 pixels
Height : 428 pixels
Display aspect ratio : 2.40:1
Frame rate mode : Constant
Frame rate : 23.976 (23976/1000) FPS
Color space : YUV
Chroma subsampling : 4:2:0
Bit depth : 8 bits
Scan type : Progressive
Bits/(Pixel*Frame) : 0.168
Stream size : 1.56 GiB (68%)
Writing library : x264 core 146 r2538 121396c
Encoding settings : cabac=1 / ref=12 / deblock=1:-3:-3 / analyse=0x3:0x113 / me=umh / subme=11 / psy=1 / psy_rd=1.00:0.00 / mixed_ref=1 / me_range=48 / chroma_me=1 / trellis=2 / 8x8dct=1 / cqm=0 / deadzone=21,11 / fast_pskip=0 / chroma_qp_offset=-2 / threads=12 / lookahead_threads=3 / sliced_threads=0 / nr=0 / decimate=0 / interlaced=0 / bluray_compat=0 / constrained_intra=0 / bframes=11 / b_pyramid=2 / b_adapt=2 / b_bias=0 / direct=3 / weightb=1 / open_gop=0 / weightp=2 / keyint=240 / keyint_min=23 / scenecut=40 / intra_refresh=0 / rc_lookahead=40 / rc=2pass / mbtree=1 / bitrate=1764 / ratetol=1.0 / qcomp=0.60 / qpmin=0 / qpmax=69 / qpstep=4 / cplxblur=20.0 / qblur=0.5 / vbv_maxrate=50000 / vbv_bufsize=62500 / nal_hrd=none / filler=0 / ip_ratio=1.40 / aq=1:1.00
Language : English
Default : Yes
Forced : No

Audio #1
ID : 2
Format : AC-3
Format/Info : Audio Coding 3
Mode extension : CM (complete main)
Format settings, Endianness : Big
Codec ID : A_AC3
Duration : 2 h 6 min
Bit rate mode : Constant
Bit rate : 384 kb/s
Channel(s) : 6 channels
Channel positions : Front: L C R, Side: L R, LFE
Sampling rate : 48.0 kHz
Frame rate : 31.250 FPS (1536 spf)
Compression mode : Lossy
Stream size : 348 MiB (15%)
Language : Russian
Default : Yes
Forced : No

Audio #2
ID : 3
Format : AC-3
Format/Info : Audio Coding 3
Mode extension : CM (complete main)
Format settings, Endianness : Big
Codec ID : A_AC3
Duration : 2 h 6 min
Bit rate mode : Constant
Bit rate : 448 kb/s
Channel(s) : 6 channels
Channel positions : Front: L C R, Side: L R, LFE
Sampling rate : 48.0 kHz
Frame rate : 31.250 FPS (1536 spf)
Compression mode : Lossy
Stream size : 406 MiB (17%)
Language : English
Default : No
Forced : No

Text #1
ID : 4
Format : UTF-8
Codec ID : S_TEXT/UTF8
Codec ID/Info : UTF-8 Plain Text
Duration : 2 h 6 min
Bit rate : 4 b/s
Count of elements : 67
Stream size : 4.15 KiB (0%)
Title : forced
Language : Russian
Default : Yes
Forced : No

Text #2
ID : 5
Format : UTF-8
Codec ID : S_TEXT/UTF8
Codec ID/Info : UTF-8 Plain Text
Duration : 2 h 6 min
Bit rate : 109 b/s
Count of elements : 1966
Stream size : 102 KiB (0%)
Title : full
Language : Russian
Default : No
Forced : No

Text #3
ID : 6
Format : UTF-8
Codec ID : S_TEXT/UTF8
Codec ID/Info : UTF-8 Plain Text
Duration : 2 h 5 min
Bit rate : 70 b/s
Count of elements : 2314
Stream size : 65.1 KiB (0%)
Title : full
Language : English
Default : No
Forced : No

Text #4
ID : 7
Format : UTF-8
Codec ID : S_TEXT/UTF8
Codec ID/Info : UTF-8 Plain Text
Duration : 2 h 6 min
Bit rate : 74 b/s
Count of elements : 2424
Stream size : 68.5 KiB (0%)
Title : SDH
Language : English
Default : No
Forced : No

Menu
00:00:00.000 : en:00:00:00.000
00:03:13.360 : en:00:03:13.360
00:08:13.535 : en:00:08:13.535
00:12:01.721 : en:00:12:01.721
00:16:32.241 : en:00:16:32.241
00:21:06.682 : en:00:21:06.682
00:23:53.682 : en:00:23:53.682
00:26:59.451 : en:00:26:59.451
00:32:18.520 : en:00:32:18.520
00:37:37.005 : en:00:37:37.005
00:41:36.577 : en:00:41:36.577
00:46:08.474 : en:00:46:08.474
00:49:30.467 : en:00:49:30.467
00:56:11.743 : en:00:56:11.743
01:00:02.599 : en:01:00:02.599
01:03:27.971 : en:01:03:27.971
01:08:43.328 : en:01:08:43.328
01:15:03.624 : en:01:15:03.624
01:19:05.991 : en:01:19:05.991
01:22:17.432 : en:01:22:17.432
01:26:50.330 : en:01:26:50.330
01:32:27.709 : en:01:32:27.709
01:35:19.088 : en:01:35:19.088
01:40:41.285 : en:01:40:41.285
01:44:42.860 : en:01:44:42.860
01:49:35.194 : en:01:49:35.194
01:54:38.830 : en:01:54:38.830
01:59:47.263 : en:01:59:47.263

pb.wtf



Скачать Скрытые фигуры через торрент http://i77.fastpic.ru/big/2016/0417/a7/808a646271c761f7c7d87df3d366b3a7.png Скачать фильм Скрытые фигуры через торрент бесплантно в хорошем качестве Описание: Команда афроамериканок проводит для НАСА ряд математических вычислений, необходимых для запуска первой космической миссии.✦ ... 8.2 10 5
Info! Золотая раздача, скачанное не засчитывается.
Торрент: Зарегистрирован [2017-04-12 08:43] · скачан: 290 раз
Статус: √ проверено
Размер: 2.29 GB
Как cкачать? Как скачать Скрытые фигуры через торрент | UTorrent

% Раздел Тема Автор DL S | L
Фильмы 2016 [DVDrip, WEB-DLRip, HDrip] (DUB, MVO) [ 2.18 GB ] Скрытые фигуры / Hidden Figures [2016 биография история BDRip] - [] Twi7ter Скачать
3 | 0
Фильмы 2016 [DVDrip, WEB-DLRip, HDrip] (DUB, MVO) [ 1.46 GB ] Скрытые фигуры / Hidden Figures [2016 биография история BDRip] - [] Twi7ter Скачать
1 | 0
Фильмы 2016 [DVDrip, WEB-DLRip, HDrip] (DUB, MVO) [ 1.45 GB ] Скрытые фигуры / Hidden Figures [2016 HDRip-AVC ] - ExKinoRay Enigma2010 Скачать
1 | 0
Фильмы 2016 [DVDrip, WEB-DLRip, HDrip] (DUB, MVO) [ 1.46 GB ] Скрытые фигуры / Hidden Figures [2016 BDRip ] oleg8 Скачать
1 | 0

28-11-2019 20:33  

Отключить всю рекламу на сайте


    Дорогой пользователь! Огромная просьба, поблагодарите релизера, оцените раздачу и оставьте свои комментарий, если Вы скачали Скрытые фигуры через торрент бесплатно! Внесите свою лепту в развитие PiratBit!
    Комментировать посты могут только пользователи прошедшие не сложную регистрацию
    Показать сообщения:    

    Скрытые фигуры через торрент
    Скачать бесплатно Скрытые фигуры
    Скрытые фигуры скачать торрент
    Скрытые фигуры смотреть онлайн
    Cкачать фильм Скрытые фигуры бесплатно
    Скрытые фигуры скачать торрент в хорошем качестве
    Скрытые фигуры смотреть онлайн бесплатно в хорошем качестве


    Вы не можете начинать темы
    Вы не можете отвечать на сообщения
    Вы не можете редактировать свои сообщения
    Вы не можете удалять свои сообщения
    Вы не можете голосовать в опросах
    Вы не можете прикреплять файлы к сообщениям
    Вы можете скачивать файлы