новый адрес
Мега распродажа FORZA HORIZON 4 ULTIMATE+ВСЕ DLC+ОНЛАЙН всего за 499р. 349 руб. (супер цена). Внимание количество ограничено!!!

iTunes

1+1

iTunes

мы

iTunes

1

iTunes

Чернобыль

iTunes

Ральф против интернета

Лицензия

ПШазам

Лицензия

Игра престолов

Лицензия

30
pack

ВАЖНО

!!Акция!!

Alien_RageХит недели

RePack

Resident Evil 21

ИГРА 18+

pack

RePack

Metro:Exodus

!!Акция!!

Alien_Rage

RePack

fifa19

RePack

Assassins Creed: Odyssey

RePack

NEED FOR SPEED™ PAYBACK

3 сезон

9 сезон

Бесстыжие 9 сезон

Все сериалы

все сериалы на PB.wtf

RePack

FAR CRY 5
Ребята, катастрофически не хватает 1900р. для оплаты серверов за Октябрь (всвязи с блокировками трафик упал в 3 раза), 1-2р., выручайте.
  

Наши соседи (Сергей Сплошнов) [1957, СССР, комедия, SATRip от AVP Studio] pb.wtf

Наши соседи через торрент pb.wtf

Размер: 1.09 GB | Добавлен: 2 года 7 мес. назад | Торрент скачан:7 раз
Скачать  

12-04-2017 08:51 Наши соседи Скачать торрент  

Наши соседи
Страна: СССР
Производство: Беларусьфильм

Жанр: комедия
Год выпуска: 1957
Продолжительность: 01:16:25

Перевод: Не требуется
Cубтитры: нет
Оригинальная аудиодорожка: русский

Режиссер: Сергей Сплошнов

В ролях:
Глеб Глебов, Ольга Викландт, Нелли Корнеева, Лев Фричинский, Константин Сорокин, Валентина Кравченко, Анатолий Адоскин, Лидия Ржецкая, Михаил Петров...
Об актёрах подробней

Описание:
В освободившуюся комнату коммунальной квартиры вселяется общительный молодой слесарь и сразу же завоевывает симпатии жильцов. Но у мадам Шпаковской, матери единственной дочери, появляются свои виды на благополучного юношу, в котором она признает "знаменитость". Однако молодые люди без ее помощи влюбляются друг в друга, а Шпаковская, узнав, что жених - простой парень, безуспешно пытается помешать браку...

Источник: DVB
Качество видео: SATRip
Формат видео: AVI

Видео: 688x512 (4:3), 25 fps, XviD ~ 1838 kbps avg, 0.209 bit/pixel
Аудио: 48 kHz, Dolby Digital AC3 2.0, 192 kbps

Раздача от:
Общее
Полное имя : Nashi.sosedi.1957.SATRip_[New-team]_by_AVP_Studio.avi
Формат : AVI
Формат/Информация : Audio Video Interleave
Размер файла : 1,09 Гбайт
Продолжительность : 1 ч. 16 м.
Общий поток : 2040 Кбит/сек
Программа кодирования : VirtualDubMod 1.5.10.3 | www.virtualdub-fr.org || (build 2550/release)
Библиотека кодирования : VirtualDubMod build 2550/release

Видео
Идентификатор : 0
Формат : MPEG-4 Visual
Профиль формата : Advanced Simple@L5
Параметр BVOP формата : 1
Параметр QPel формата : Нет
Параметр GMC формата : Без точки перехода
Параметр матрицы формата : Выборочная
Идентификатор кодека : XVID
Идентификатор кодека/Подсказка : XviD
Продолжительность : 1 ч. 16 м.
Битрейт : 1838 Кбит/сек
Ширина : 688 пикселей
Высота : 512 пикселей
Соотношение сторон : 4:3
Частота кадров : 25,000 кадров/сек
Цветовое пространство : YUV
Субдискретизация насыщенности : 4:2:0
Битовая глубина : 8 бит
Тип развёртки : Прогрессивная
Метод сжатия : С потерями
Бит/(Пиксели*Кадры) : 0.209
Размер потока : 1005 Мбайт (90%)
Библиотека кодирования : XviD 73

Аудио
Идентификатор : 1
Формат : AC-3
Формат/Информация : Audio Coding 3
Параметр Endianness формата : Big
Идентификатор кодека : 2000
Продолжительность : 1 ч. 16 м.
Вид битрейта : Постоянный
Битрейт : 192 Кбит/сек
Каналы : 2 канала
Расположение каналов : Front: L R
Частота : 48,0 КГц
Частота кадров : 31,250 кадров/сек (1536 spf)
Битовая глубина : 16 бит
Метод сжатия : С потерями
Размер потока : 105 Мбайт (9%)
Выравнивание : Разделение по промежуткам
Продолжительность промежутка : 40 мс. (1,00 видеокадр)
Время предзагрузки промежутка : 500 мс
pb.wtf



Скачать Наши соседи через торрент http://s014.radikal.ru/i326/1704/42/605f5c8ca2ca.png Скачать фильм Наши соседи через торрент бесплантно в хорошем качестве Описание:В освободившуюся комнату коммунальной квартиры вселяется общительный молодой слесарь и сразу же завоевывает симпатии жильцов. Но у ... 10 10 1
Info! Золотая раздача, скачанное не засчитывается.
Торрент: Зарегистрирован [2017-04-12 08:51] · скачан: 7 раз
Статус: √ проверено
Размер: 1.09 GB
Как cкачать? Как скачать Наши соседи через торрент | qTorrent

% Раздел Тема Автор DL S | L
Кино СССР [ 1.09 GB ] Наши соседи [1957 СССР SATRip-AVC от AVP Studio] AVP Studio Скачать
1 | 0
Кино СССР [ 745 MB ] Наши соседи [1957 СССР SATRip от AVP Studio] AVP Studio Скачать
1 | 0
Гонзо [ 1.15 GB ] Дочка нашего соседа 3 / Our Neighbor's Daughter 3 [2006 Anal Legal Teen Threesome Hardcore All Sex DVDRip Оригинал] sheker187 Скачать
1 | 0
Гонзо [ 1.36 GB ] Мы Трахаемся С Нашими Соседями 3 / We Are Fucking With Our Neighbors 3 [2012 All Sex HD - Shot In High Def Threesomes & More DVDRip Оригинал] sheker187 Скачать
1 | 0
Гонзо [ 1.37 GB ] Мы Трахаемся С Нашими Соседями / We Are Fucking With Our Neighbors [2011 All Sex DP Threesomes & More Gonzo DVDRip] compact2010 Скачать
1 | 0


>> Регистрируемся здесь <<






Отзывы и комментарии о схеме читаем и пишем здесь: ---> Отзывы и комментарии о схеме

Новые благодарочки в телеграм довольных пользователей:
скриншот   скриншот   скриншот   скриншот   скриншот
    Дорогой пользователь! Огромная просьба, поблагодарите релизера, оцените раздачу и оставьте свои комментарий, если Вы скачали Наши соседи через торрент бесплатно! Внесите свою лепту в развитие PiratBit!
    Комментировать посты могут только пользователи прошедшие не сложную регистрацию
    Показать сообщения:    

    Наши соседи через торрент
    Скачать бесплатно Наши соседи
    Наши соседи скачать торрент
    Наши соседи смотреть онлайн
    Cкачать фильм Наши соседи бесплатно
    Наши соседи скачать торрент в хорошем качестве
    Наши соседи смотреть онлайн бесплатно в хорошем качестве


    Вы не можете начинать темы
    Вы не можете отвечать на сообщения
    Вы не можете редактировать свои сообщения
    Вы не можете удалять свои сообщения
    Вы не можете голосовать в опросах
    Вы не можете прикреплять файлы к сообщениям
    Вы можете скачивать файлы