Ссылка на приватное зеркало нашего сайта всего за 1$. Внимание количество ограничено!!!

2 сезон

iTunes

1 сезон

1

iTunes

iTunes

iTunes

1 сезон

RePack

30

ИГРА 18+

pack

ВАЖНО

!!Акция!!

Alien_RageХит недели

RePack

MK11
pack

Забери бонус

RePack

jed

!!Акция!!

Alien_Rage

RePack

fifa19

RePack

Assassins Creed: Odyssey

RePack

NEED FOR SPEED™ PAYBACK

4 сезон

9 сезон

Бесстыжие 9 сезон

Все сериалы

все сериалы на PB.wtf

RePack

FAR CRY 5
  

Город свингеров / Swingtown (1-13 серии из 13) (Алан Пол, Джейми Бэббит) [2008 г., Драма, комедия, SATRip, Профессиональный (двухголосый) CBS Drama] R.G.Resident pb.wtf

Город свингеров через торрент pb.wtf

Размер: 6.99 GB | Добавлен: 3 года 6 мес. назад | Торрент скачан:94 раза
Скачать  

12-04-2017 14:40 Город свингеров Скачать торрент  

Город свингеров / Swingtown
Год выпуска: 2008
Страна: США, CBS Paramount Network Television
Жанр: Драма, комедия
Продолжительность: 13 x ~ 00:41:00
Перевод: Профессиональный (двухголосый) CBS Drama

Режиссер: Алан Пол, Джейми Бэббит

rating

В ролях: Молли Паркер, Джек Девенпорт, Грант Шоу, Лана Паррия, Мириам Шор, Шэнна Коллинз, Бритт Робертсон, Аарон Кристиан Хоулс, Джош Хопкинс, Майкл Рэди, Ник Бенсон, Кейт Норби, Рашель Лефевр, Боб Росс, Эрин Дэниелс, Марк Вэлли

Описание: 1970-е года… Семейная пара Сьюзан и Брюс Миллер переезжает с детьми в престижный пригород Чикаго, предвкушая новую идеальную жизнь. Для них это — пикники на заднем дворе и дети играющие рядом. Однако, после знакомства со своими новыми соседями Томом и Триной Дэкер, Миллеры понимают, что наравне с традиционными сексуальными отношениями есть ещё и «свободные браки», в которых выбор сексуального партнёра и групповой секс воспринимаются как неотъемлемая часть семейной жизни. Предыдущие соседи Миллеров, Дженет и Роджер Томпсон, абсолютно не понимают и не приемлют подобную сексуальную свободу.

Качество: SATRip
Формат: AVI
Видео кодек: XviD
Аудио кодек: AC3
Видео: 704x384 (1.83:1), 23.976 fps, XviD build 65 ~1624 kbps avg, 0.25 bit/pixel
Аудио#1: 48 kHz, AC3 Dolby Digital, 2/0 (L,R) ch, ~192.00 kbps avg
Релиз от: ruslanishe
General
Gorod.svingerov.XviD.2008.SATRip.R.G.Resident\001.avi
Format : AVI
Format/Info : Audio Video Interleave
File size : 550 MiB
Duration : 42mn 11s
Overall bit rate : 1 823 Kbps
Director : ruslanishe
Copyright : R.G.Resident

Video
ID : 0
Format : MPEG-4 Visual
Format profile : Advanced Simple@L5
Format settings, BVOP : 2
Format settings, QPel : No
Format settings, GMC : No warppoints
Format settings, Matrix : Custom
Codec ID : XVID
Codec ID/Hint : XviD
Duration : 42mn 11s
Bit rate : 1 624 Kbps
Width : 704 pixels
Height : 384 pixels
Display aspect ratio : 1.85:1
Frame rate : 23.976 fps
Color space : YUV
Chroma subsampling : 4:2:0
Bit depth : 8 bits
Scan type : Progressive
Compression mode : Lossy
Bits/(Pixel*Frame) : 0.251
Stream size : 490 MiB (89%)
Writing library : XviD 65

Audio
ID : 1
Format : AC-3
Format/Info : Audio Coding 3
Mode extension : CM (complete main)
Format settings, Endianness : Big
Codec ID : 2000
Duration : 42mn 11s
Bit rate mode : Constant
Bit rate : 192 Kbps
Channel(s) : 2 channels
Channel positions : Front: L R
Sampling rate : 48.0 KHz
Bit depth : 16 bits
Compression mode : Lossy
Stream size : 57.9 MiB (11%)
Alignment : Aligned on interleaves
Interleave, duration : 64 ms (1.53 video frames)
Interleave, preload duration : 192 ms
Title : Профессиональный (двухголосый) CBS Drama

pb.wtf



Скачать Город свингеров через торрент http://s19.radikal.ru/i192/1612/22/76c7f10f9645.jpg Скачать фильм Город свингеров через торрент бесплантно в хорошем качестве Описание: 1970-е года… Семейная пара Сьюзан и Брюс Миллер переезжает с детьми в престижный пригород Чикаго, предвкушая новую идеальную ... 9.8 10 5
Info! Золотая раздача, скачанное не засчитывается.
Торрент: Зарегистрирован [2017-04-12 14:40] · скачан: 94 раз
Статус: √ проверено
Размер: 6.99 GB
Как cкачать? Как скачать Город свингеров через торрент | qTorrent

28-11-2019 20:33  

Отключить всю рекламу на сайте

    Дорогой пользователь! Огромная просьба, поблагодарите релизера, оцените раздачу и оставьте свои комментарий, если Вы скачали Город свингеров через торрент бесплатно! Внесите свою лепту в развитие PiratBit!
    Комментировать посты могут только пользователи прошедшие не сложную регистрацию
    Показать сообщения:    

    Город свингеров через торрент
    Скачать бесплатно Город свингеров
    Город свингеров скачать торрент
    Город свингеров смотреть онлайн
    Cкачать фильм Город свингеров бесплатно
    Город свингеров скачать торрент в хорошем качестве
    Город свингеров смотреть онлайн бесплатно в хорошем качестве


    Вы не можете начинать темы
    Вы не можете отвечать на сообщения
    Вы не можете редактировать свои сообщения
    Вы не можете удалять свои сообщения
    Вы не можете голосовать в опросах
    Вы не можете прикреплять файлы к сообщениям
    Вы можете скачивать файлы