Ссылка на приватное зеркало нашего сайта всего за 1$. Внимание количество ограничено!!!

2 сезон

iTunes

1 сезон

1

2 сезон

2 сезон

iTunes

1 сезон

RePack

30

Ultimate

ВАЖНО

ИГРА 18+

pack

RePack

MK11
pack

Забери бонус

RePack

jed

!!Акция!!

Alien_Rage

RePack

fifa19

RePack

Assassins Creed: Odyssey

RePack

NEED FOR SPEED™ PAYBACK

4 сезон

9 сезон

Бесстыжие 9 сезон

Все сериалы

все сериалы на PB.wtf

RePack

FAR CRY 5
  

Побег: Продолжение / Prison Break: Sequel / Сезон 5 / Серии 1-9 из 9 (Нельсон МакКормик, Пол Шойринг) [2017, боевик, триллер, драма, криминал, детектив, WEB-DLRip] MVO [FOX] pb.wtf

Побег: Продолжение через торрент pb.wtf

Размер: 4.4 GB | Добавлен: 3 года 6 мес. назад | Торрент скачан:130 раз
Скачать  

12-04-2017 18:49 Побег: Продолжение Скачать торрент  

Побег: Продолжение / Prison Break: SequelГод выпуска: 2017
Страна: США
Жанр: боевик, триллер, драма, криминал, детектив
Всего серий: 9
Продолжительность: 9 x ~ 00:43:00
Перевод: Профессиональный (многоголосый) - FOX
Субтитры: отсутствуют

Режиссер: Нельсон МакКормик, Пол Шойринг

rating

В ролях:

Доминик Пёрселл, Вентворт Миллер, Амори Ноласко, Роберт Неппер, Сара Уэйн Кэллис, Рокмонд Данбар, Марина Бенедикт, Кристиан Майкл Купер, Марк Фойерстин, Стив Музакис, Эмин Эль Гамин, Кертис Льюм, Бобби Надери, Пол Адельштейн

Описание:

Линкольн и Сара объединяются после того, как выяснилось, что Майкл все еще жив и находится в йеменской тюрьме. Майкл страдает амнезией, поэтому Сара и Линкольн не знали, что он жив, пока Ти-Бэг не принёс фотографию Майкла, сделанную в тюрьме, где находится Скофилд. Сара и Линкольн планируют масштабный побег с помощью друзей.

Качество: WEB-DLRip
Формат: AVI
Видео кодек: XviD
Аудио кодек: MP3

Видео: 720x400 (1.80:1), 25 fps, XviD build 73 ~1425 kbps avg, 0.20 bit/pixel
Аудио#1: RUS: 48 kHz, MPEG Layer 3, 2 ch, ~128.00 kbps avg (FOX)
Аудио#2: ENG: 48 kHz, MPEG Layer 3, 2 ch, ~128.00 kbps avg
скриншот   скриншот   скриншот   скриншот   скриншот  

Общее
Полное имя : D:\Prison Break. Sequel (FOX)\Prison.Break.S05E01.XviD.FOX.(qqss44).avi
Формат : AVI
Формат/Информация : Audio Video Interleave
Размер файла : 500 Мбайт
Продолжительность : 41 м. 14 с.
Общий поток : 1694 Кбит/сек
Программа кодирования : VirtualDubMod 1.5.10.3 | www.virtualdub-fr.org || (build 2550/release)
Библиотека кодирования : VirtualDubMod build 2550/release

Видео
Идентификатор : 0
Формат : MPEG-4 Visual
Профиль формата : Advanced Simple@L5
Параметр BVOP формата : 2
Параметр QPel формата : Нет
Параметр GMC формата : Без точки перехода
Параметр матрицы формата : Выборочная
Идентификатор кодека : XVID
Идентификатор кодека/Подсказка : XviD
Продолжительность : 41 м. 14 с.
Битрейт : 1423 Кбит/сек
Ширина : 720 пикселей
Высота : 400 пикселей
Соотношение сторон : 16:9
Частота кадров : 25,000 кадров/сек
Цветовое пространство : YUV
Субдискретизация насыщенности : 4:2:0
Битовая глубина : 8 бит
Тип развёртки : Прогрессивная
Метод сжатия : С потерями
Бит/(Пиксели*Кадры) : 0.198
Размер потока : 420 Мбайт (84%)
Библиотека кодирования : XviD 73

Аудио #1
Идентификатор : 1
Формат : MPEG Audio
Версия формата : Version 1
Профиль формата : Layer 3
Режим : Joint stereo
Расширение режима : MS Stereo
Идентификатор кодека : 55
Идентификатор кодека/Подсказка : MP3
Продолжительность : 41 м. 14 с.
Вид битрейта : Постоянный
Битрейт : 128 Кбит/сек
Каналы : 2 канала
Частота : 48,0 КГц
Метод сжатия : С потерями
Размер потока : 37,8 Мбайт (8%)
Выравнивание : Соединение по промежуткам
Продолжительность промежутка : 40 мс. (1,00 видеокадр)
Время предзагрузки промежутка : 504 мс.

Аудио #2
Идентификатор : 2
Формат : MPEG Audio
Версия формата : Version 1
Профиль формата : Layer 3
Режим : Joint stereo
Расширение режима : MS Stereo
Идентификатор кодека : 55
Идентификатор кодека/Подсказка : MP3
Продолжительность : 41 м. 14 с.
Вид битрейта : Постоянный
Битрейт : 128 Кбит/сек
Каналы : 2 канала
Частота : 48,0 КГц
Метод сжатия : С потерями
Размер потока : 37,8 Мбайт (8%)
Выравнивание : Соединение по промежуткам
Продолжительность промежутка : 40 мс. (1,00 видеокадр)
Время предзагрузки промежутка : 504 мс.

Внимание! Раздача ведётся путём добавления новых серий; при каждом добавлении создаётся новый торрент. Чтобы начать докачку новой серии, пользователям необходимо сделать следующее:
(1) остановить скачивание,
(2) удалить старый торрент у себя из клиента (старые серии удалять не надо),
(3) скачать новый торрент и запустить его у себя в клиенте вместо старого, при этом указать клиенту путь в старую папку куда и должно происходить скачивание новых серий.

Ваш клиент при этом должен произвести хеширование (проверку) старой папки (если не производит сам - помогите ему сделать это), и будет докачивать только те серии которых у вас ещё нет. Старые серии при этом не удаляются, а продолжают раздаваться!

Eсли вы уже удалили старые серии, то предотвратить повторную закачку старых серий можно, отжав галочку в соответствующих местах при запуске нового торрента. По возможности, желательно не удалять старые серии как можно дольше, чтобы релизёр не столько продолжал раздавать старые серии, а смог сконцентрироваться на новых.
pb.wtf



Скачать Побег: Продолжение через торрент http://s008.radikal.ru/i303/1704/6f/735032e37d7f.png Скачать фильм Побег: Продолжение через торрент бесплантно в хорошем качестве Описание: Линкольн и Сара объединяются после того, как выяснилось, что Майкл все еще жив и находится в йеменской тюрьме. Майкл страдает ... 9.7 10 16
Info! Серебряная раздача, засчитывается только 50% скачанного.
Торрент: Зарегистрирован [2017-05-31 20:21] · скачан: 130 раз
Статус: √ проверено
Размер: 4.4 GB
Как cкачать? Как скачать Побег: Продолжение через торрент | qTorrent

% Раздел Тема Автор DL S | L
Зарубежные сериалы [ 13.95 GB ] Побег / Побег: Продолжение / Prison Break: Sequel / Сезон: 5 / Серии 1-9 из 9 [2017 WEB-DL 720p] MVO [NewStudio] GEKADOL Скачать
1 | 0
Зарубежные сериалы [ 35.65 GB ] Побег: Продолжение / Prison Break: Sequel / Сезон: 5 / Серии: 1-9 из 9 [2017 WEBRip 1080p] [MVO] + [MVO] killermax2013 Скачать
1 | 0
Зарубежные сериалы [ 12.58 GB ] Побег: Продолжение / Prison Break: Sequel / Сезон: 5 / Серии: 1-9 из 9 [2017 WEB-DL 720p] MVO [FOX] batonchik Скачать
1 | 0
Зарубежные сериалы [ 3.88 GB ] Побег: Продолжение / Prison Break: Sequel / Сезон: 5 / Серии: 1-9 из 9 [2017 HDTVRip] [MVO] killermax2013 Скачать
1 | 0

28-11-2019 20:33  

Отключить всю рекламу на сайте

    Дорогой пользователь! Огромная просьба, поблагодарите релизера, оцените раздачу и оставьте свои комментарий, если Вы скачали Побег: Продолжение через торрент бесплатно! Внесите свою лепту в развитие PiratBit!
    Комментировать посты могут только пользователи прошедшие не сложную регистрацию
    Показать сообщения:    

    Побег: Продолжение через торрент
    Скачать бесплатно Побег: Продолжение
    Побег: Продолжение скачать торрент
    Побег: Продолжение смотреть онлайн
    Cкачать фильм Побег: Продолжение бесплатно
    Побег: Продолжение скачать торрент в хорошем качестве
    Побег: Продолжение смотреть онлайн бесплатно в хорошем качестве


    Вы не можете начинать темы
    Вы не можете отвечать на сообщения
    Вы не можете редактировать свои сообщения
    Вы не можете удалять свои сообщения
    Вы не можете голосовать в опросах
    Вы не можете прикреплять файлы к сообщениям
    Вы можете скачивать файлы