Ссылка на приватное зеркало всего за 1$. Внимание количество ограничено!!!

iTunes

iTunes

iTunes

1

iTunes

iTunes

iTunes

iTunes

iTunes

30
pack

$ от Little Big

ВАЖНО

!!Акция!!

Alien_RageХит недели

RePack

Resident Evil 21

ИГРА 18+

pack

RePack

jed

!!Акция!!

Alien_Rage

RePack

fifa19

RePack

Assassins Creed: Odyssey

RePack

NEED FOR SPEED™ PAYBACK

4 сезон

9 сезон

Бесстыжие 9 сезон

Все сериалы

все сериалы на PB.wtf

RePack

FAR CRY 5
  

Великая стена / The Great Wall (Чжан Имоу ) [2016, фэнтези, боевик, триллер, WEB-DL 1080p] Дубляж - [Лицензия / iTunes] pb.wtf

Великая стена через торрент pb.wtf

Раздают: 1 [ 0 KB/s ]
Размер: 3.54 GB | Добавлен: 3 года 3 мес. назад | Торрент скачан:3281 раз
Скачать  

12-04-2017 19:24 Великая стена Скачать торрент  

Великая стенаThe Great Wall«1700 лет ушло на строительство. 8851 км неприступных стен. Какой враг угрожал империи?» Год выпуска: 2016
Страна: США, Китай, Гонконг, Австралия, Канада
Жанр: фэнтези, боевик, триллер, приключения
Продолжительность: 01:43:03
Перевод: Дубляж - [Лицензия / iTunes]
Режиссер: Чжан Имоу
В ролях:
Мэтт Дэймон (William), Цзин Тянь (Commander Lin Mae), Уиллем Дефо (Ballard), Энди Лау (Strategist Wang), Педро Паскаль (Tovar), Чжан Ханьюй (General Shao), Лухан (Peng Yong), Кенни Линь (Commander Chen), Эдди Пэн (Commander Wu), Хуан Сюань (Commander Deng), Чжэн Кай (Shen), Кэрри Ван (Emperor)
Описание:
Великую стену воздвигли, чтобы оградить Поднебесную от любых угроз, но с таким врагом не сталкивались даже самые отважные ее защитники. Если вторжение не остановить - мир будет уничтожен.
Рейтинг:

MPAA: PG-13 - Детям до 13 лет просмотр не желателен
РАЗДАЧА ОТ:
Качество: WEB-DL 1080p
Формат: MKV
Видео: AVC, 1916x800 (2.40:1), 4436 kbps, 23,976 fps, 0,121 bpp
Аудио: русский / AC3 / 5.1 / 48 kHz / 384 kbps / | iTunes Russia|
Навигация по главам: есть
General
Unique ID : 185864803834613650734496830074005715119 (0x8BD442566D5C0BF4BDB61D5832CF78AF)
Complete name : The.Great.Wall.2016.1080p.WEB-DL.Rus.HDCLUB.mkv
Format : Matroska
Format version : Version 2
File size : 3.54 GiB
Duration : 1 h 43 min
Overall bit rate : 4 919 kb/s
Movie name : The Great Wall (2016) - Release for HDCLUB
Encoded date : UTC 2017-04-12 18:10:37
Writing application : mkvmerge v3.4.0 ('Rapunzel') built on May 15 2010 09:38:20
Writing library : libebml v0.8.0 + libmatroska v0.9.0

Video
ID : 1
Format : AVC
Format/Info : Advanced Video Codec
Format profile : High@L4
Format settings, CABAC : Yes
Format settings, ReFrames : 5 frames
Codec ID : V_MPEG4/ISO/AVC
Duration : 1 h 43 min
Bit rate : 4 437 kb/s
Width : 1 916 pixels
Height : 800 pixels
Display aspect ratio : 2.40:1
Frame rate mode : Constant
Frame rate : 23.976 FPS
Color space : YUV
Chroma subsampling : 4:2:0
Bit depth : 8 bits
Scan type : Progressive
Bits/(Pixel*Frame) : 0.121
Stream size : 3.19 GiB (90%)
Title : The Great Wall (2016) - Release for HDCLUB
Language : English
Default : Yes
Forced : No
Color range : Limited
Color primaries : BT.709
Transfer characteristics : BT.709
Matrix coefficients : BT.709

Audio
ID : 2
Format : AC-3
Format/Info : Audio Coding 3
Mode extension : CM (complete main)
Format settings, Endianness : Big
Codec ID : A_AC3
Duration : 1 h 43 min
Bit rate mode : Constant
Bit rate : 384 kb/s
Channel(s) : 6 channels
Channel positions : Front: L C R, Side: L R, LFE
Sampling rate : 48.0 kHz
Frame rate : 31.250 FPS (1536 spf)
Compression mode : Lossy
Stream size : 283 MiB (8%)
Title : AC3 5.1 @ 384 kbps - DUB, iTunes
Language : Russian
Default : Yes
Forced : No

Menu
00:00:00.000 : en:1
00:05:59.359 : en:2
00:11:48.541 : en:3
00:16:54.680 : en:4
00:20:14.254 : en:5
00:25:12.010 : en:6
00:28:56.317 : en:7
00:33:58.744 : en:8
00:37:55.147 : en:9
00:42:43.935 : en:10
00:46:19.942 : en:11
00:50:28.690 : en:12
00:56:47.068 : en:13
01:01:59.046 : en:14
01:07:13.819 : en:15
01:12:09.531 : en:16
01:18:21.861 : en:17
01:23:26.081 : en:18
01:27:27.155 : en:19
01:31:15.383 : en:20
• «Великая стена» стал самым дорогим фильмом, снятым в Китае. Лишь некоторые сцены снимали в Новой Зеландии.
• Голливудский дебют Энди Лау, гонконгского певца, актёра и продюсера.
• Музыку к фильму должен был написать Джеймс Хорнер, однако 22 июня 2015 года он трагически погиб в возрасте 61 года.
• Надпись на постере к фильму гласит, что строительство Великой стены заняло 1 700 лет. Всё строительство вполне могло занять столько времени. Великую стену строили по частям по приказу представителей сменявших друг друга правящих династий. На постройку каждого такого участка стены уходило от 10 до 20 лет.
• Переговоры о съёмках шли с Брайаном Крэнстоном, но, в конце концов, на предназначавшуюся ему роль утвердили Уиллема Дефо.
• Одно время предполагалось, что режиссёром фильма станет Эдвард Цвик, а роль главного героя сыграет Генри Кавилл.
• Сыгравший в фильме Лухан является бывшим участником южно-корейско-китайской группы EXO.
• На одну из ролей в фильме планировалось пригласить Александра Скарсгарда. Позже на неё утвердили Бенджамина Уокера, однако тот вскоре покинул проект.


Скриншоты pb.wtf



Скачать Великая стена через торрент http://i91.fastpic.ru/big/2017/0412/3e/972ce1c2bc275c1fc3a9997d3754263e.png Скачать фильм Великая стена через торрент бесплантно в хорошем качестве Описание: Великую стену воздвигли, чтобы оградить Поднебесную от любых угроз, но с таким врагом не сталкивались даже самые отважные ее ... 10 10 59
Info! Золотая раздача, скачанное не засчитывается.
Торрент: Зарегистрирован [2017-04-12 19:24] · скачан: 3 281 раз
Статус: √ проверено
Размер: 3.54 GB
Как cкачать? Как скачать Великая стена через торрент | qTorrent

% Раздел Тема Автор DL S | L
Ultra HD (UHD: 2K, 4K, 8K) — видео сверхвысокой чёткости [ 57.3 GB ] Великая стена / The Great Wall [2016 UHD BDRemux 2160p] DUB [] + 2xAVO sheker187 Скачать
1 | 0
Ultra HD (UHD: 2K, 4K, 8K) — видео сверхвысокой чёткости [ 24.89 GB ] Великая стена / The Great Wall [2016 UHD BDRip 2160p] [SDR] DUB sheker187 Скачать
1 | 0
Ultra HD (UHD: 2K, 4K, 8K) — видео сверхвысокой чёткости [ 60.03 GB ] Великая стена / The Great Wall [2016 UHD Blu-ray 2160p] [custom] DUB [] bober100 Скачать
1 | 0
Ultra HD (UHD: 2K, 4K, 8K) — видео сверхвысокой чёткости [ 51.08 GB ] Великая стена / The Great Wall [2016 UHD BDRemux 2160p] VO [Е. Солодухин] +DUB [] bober100 Скачать
1 | 0
Фильмы (Blu-ray, BD-Remux, HDDVD) [ 25.36 GB ] Великая стена / The Great Wall [2016 BD Remux 1080p] DUB [] bober100 Скачать
1 | 0
Фильмы (Blu-ray, BD-Remux, HDDVD) [ 41.84 GB ] Великая стена / The Great Wall [2016 Blu-ray CEE 1080p] DUB [] bober100 Скачать
1 | 0
Фильмы [HD 720p, 1080p] (Хороший звук DUB, MVO) [ 6.73 GB ] Великая стена / The Great Wall [2016 BDRip 1080p] potroks Скачать
1 | 0

28-11-2019 20:33  

Отключить всю рекламу на сайте

14-04-2017 00:19 Великая стена Скачать торрент  

какие все косоглазые анимешные)))pb.wtf



14-04-2017 16:54 Великая стена Скачать торрент  

Достойно похвалы! Браво. 10 из 10pb.wtf



15-04-2017 15:17 Великая стена Скачать торрент  

Лёгкий, хороший фильм в своём жанре. Было интересно смотреть 9/10.pb.wtf



15-04-2017 21:55 Великая стена Скачать торрент  

Зачётный фильм! Давно не было достойных, 10 из 10!!! Автору огромное спасибо за труды!pb.wtf



17-04-2017 19:02 Великая стена Скачать торрент  

Спасибо, посмотрю!pb.wtf



    Дорогой пользователь! Огромная просьба, поблагодарите релизера, оцените раздачу и оставьте свои комментарий, если Вы скачали Великая стена через торрент бесплатно! Внесите свою лепту в развитие PiratBit!
    Комментировать посты могут только пользователи прошедшие не сложную регистрацию
    Показать сообщения:    

    Великая стена через торрент
    Скачать бесплатно Великая стена
    Великая стена скачать торрент
    Великая стена смотреть онлайн
    Cкачать фильм Великая стена бесплатно
    Великая стена скачать торрент в хорошем качестве
    Великая стена смотреть онлайн бесплатно в хорошем качестве


    Вы не можете начинать темы
    Вы не можете отвечать на сообщения
    Вы не можете редактировать свои сообщения
    Вы не можете удалять свои сообщения
    Вы не можете голосовать в опросах
    Вы не можете прикреплять файлы к сообщениям
    Вы можете скачивать файлы