Ссылка на приватное зеркало всего за 1$. Внимание количество ограничено!!!

iTunes

iTunes

iTunes

1

iTunes

iTunes

iTunes

iTunes

iTunes

30
pack

$ от Little Big

ВАЖНО

!!Акция!!

Alien_RageХит недели

RePack

Resident Evil 21

ИГРА 18+

pack

RePack

jed

!!Акция!!

Alien_Rage

RePack

fifa19

RePack

Assassins Creed: Odyssey

RePack

NEED FOR SPEED™ PAYBACK

4 сезон

9 сезон

Бесстыжие 9 сезон

Все сериалы

все сериалы на PB.wtf

RePack

FAR CRY 5
  

Великая стена / The Great Wall (Чжан Имоу) [2016, фэнтези, боевик, триллер, приключения, WEB-DL 720p] DUB [iTunes] pb.wtf

Великая стена через торрент pb.wtf

Размер: 3.32 GB | Добавлен: 3 года 3 мес. назад | Торрент скачан:1222 раза
Скачать  

12-04-2017 21:23 Великая стена Скачать торрент  

Великая стена / The Great WallГод выпуска: 2016
Страна: Китай, США
Жанр: фэнтези, боевик, триллер, приключения
Продолжительность: 01:43:03
Перевод: Дубляж - [iTunes]
Субтитры: отсутствуют

Режиссер: Чжан Имоу



В ролях:

Мэтт Дэймон, Цзин Тянь, Уиллем Дефо, Энди Лау, Педро Паскаль, Чжан Ханьюй, Лухан, Кенни Линь, Эдди Пэн, Хуан Сюань

Описание:

Великую стену воздвигли, чтобы оградить Поднебесную от любых угроз, но с таким врагом не сталкивались даже самые отважные ее защитники. Если вторжение не остановить — мир будет уничтожен.

Качество: WEB-DL 720p
Формат: MKV
Видео кодек: H.264
Аудио кодек: AC3

Видео: 1280x534p (2.40:1), 23.976 fps, AVC MPEG-4 (H.264), High@L4.1 ~3942 kbps, 0.211 bit/pixel
Аудио#1: Русский: 48 kHz, AC3 Dolby Digital, 6 ch, ~384 kbps [Профессиональный (полное дублирование)]
Аудио#2: Английский: 48 kHz, AC3 Dolby Digital, 2 ch, ~192 kbps [Оригинал]
скриншот   скриншот   скриншот   скриншот  

Формат : Matroska
Версия формата : Version 2
Размер файла : 3,31 Гбайт
Продолжительность : 1 ч. 43 м.
Общий поток : 4518 Кбит/сек
Дата кодирования : UTC 2017-04-12 19:22:06
Программа кодирования : mkvmerge v3.4.0 ('Rapunzel') built on May 15 2010 09:38:20
Библиотека кодирования : libebml v0.8.0 + libmatroska v0.9.0

Видео
Идентификатор : 1
Формат : AVC
Формат/Информация : Advanced Video Codec
Профиль формата : High@L4
Параметр CABAC формата : Да
Параметр ReFrames формата : 5 кадров
Идентификатор кодека : V_MPEG4/ISO/AVC
Продолжительность : 1 ч. 43 м.
Битрейт : 3942 Кбит/сек
Ширина : 1280 пикселей
Высота : 534 пикселей
Соотношение сторон : 2,40:1
Режим частоты кадров : Постоянный
Частота кадров : 23,976 кадра/сек
Цветовое пространство : YUV
Субдискретизация насыщенности : 4:2:0
Битовая глубина : 8 бит
Тип развёртки : Прогрессивная
Бит/(Пиксели*Кадры) : 0.211
Размер потока : 2,89 Гбайт (87%)
Язык : English
Default : Да
Forced : Нет
Цветовой диапазон : Limited
Основные цвета : BT.709
Характеристики трансфера : BT.709
Коэффициенты матрицы : BT.709

Аудио #1
Идентификатор : 2
Формат : AC-3
Формат/Информация : Audio Coding 3
Расширение режима : CM (complete main)
Параметр Endianness формата : Big
Идентификатор кодека : A_AC3
Продолжительность : 1 ч. 43 м.
Вид битрейта : Постоянный
Битрейт : 384 Кбит/сек
Каналы : 6 каналов
Расположение каналов : Front: L C R, Side: L R, LFE
Частота : 48,0 КГц
Частота кадров : 31,250 кадров/сек (1536 spf)
Метод сжатия : С потерями
Размер потока : 283 Мбайт (9%)
Заголовок : AC3 5.1 @ 384 kbps - DUB, iTunes
Язык : Russian
Default : Да
Forced : Нет

Аудио #2
Идентификатор : 3
Формат : AC-3
Формат/Информация : Audio Coding 3
Расширение режима : CM (complete main)
Параметр Endianness формата : Big
Идентификатор кодека : A_AC3
Продолжительность : 1 ч. 43 м.
Вид битрейта : Постоянный
Битрейт : 192 Кбит/сек
Каналы : 2 каналов
Расположение каналов : Front: L R
Частота : 48,0 КГц
Частота кадров : 31,250 кадров/сек (1536 spf)
Метод сжатия : С потерями
Размер потока : 142 Мбайт (4%)
Язык : English
Default : Да
Forced : Нет

Меню
00:00:00.000 : en:1
00:05:59.359 : en:2
00:11:48.541 : en:3
00:16:54.680 : en:4
00:20:14.254 : en:5
00:25:12.010 : en:6
00:28:56.317 : en:7
00:33:58.744 : en:8
00:37:55.147 : en:9
00:42:43.935 : en:10
00:46:19.942 : en:11
00:50:28.690 : en:12
00:56:47.068 : en:13
01:01:59.046 : en:14
01:07:13.819 : en:15
01:12:09.531 : en:16
01:18:21.861 : en:17
01:23:26.081 : en:18
01:27:27.155 : en:19
01:31:15.383 : en:20

pb.wtf



Скачать Великая стена через торрент http://s019.radikal.ru/i632/1704/54/6adc199cb1b3.jpg Скачать фильм Великая стена через торрент бесплантно в хорошем качестве Описание: Великую стену воздвигли, чтобы оградить Поднебесную от любых угроз, но с таким врагом не сталкивались даже самые отважные ее ... 9.8 10 17
Info! Золотая раздача, скачанное не засчитывается.
Торрент: Зарегистрирован [2017-04-12 21:23] · скачан: 1 222 раз
Статус: √ проверено
Размер: 3.32 GB
Как cкачать? Как скачать Великая стена через торрент | qTorrent

% Раздел Тема Автор DL S | L
Ultra HD (UHD: 2K, 4K, 8K) — видео сверхвысокой чёткости [ 57.3 GB ] Великая стена / The Great Wall [2016 UHD BDRemux 2160p] DUB [] + 2xAVO sheker187 Скачать
1 | 0
Ultra HD (UHD: 2K, 4K, 8K) — видео сверхвысокой чёткости [ 24.89 GB ] Великая стена / The Great Wall [2016 UHD BDRip 2160p] [SDR] DUB sheker187 Скачать
1 | 0
Ultra HD (UHD: 2K, 4K, 8K) — видео сверхвысокой чёткости [ 60.03 GB ] Великая стена / The Great Wall [2016 UHD Blu-ray 2160p] [custom] DUB [] bober100 Скачать
1 | 0
Ultra HD (UHD: 2K, 4K, 8K) — видео сверхвысокой чёткости [ 51.08 GB ] Великая стена / The Great Wall [2016 UHD BDRemux 2160p] VO [Е. Солодухин] +DUB [] bober100 Скачать
1 | 0
Фильмы (Blu-ray, BD-Remux, HDDVD) [ 25.36 GB ] Великая стена / The Great Wall [2016 BD Remux 1080p] DUB [] bober100 Скачать
1 | 0
Фильмы (Blu-ray, BD-Remux, HDDVD) [ 41.84 GB ] Великая стена / The Great Wall [2016 Blu-ray CEE 1080p] DUB [] bober100 Скачать
1 | 0
Фильмы [HD 720p, 1080p] (Хороший звук DUB, MVO) [ 6.73 GB ] Великая стена / The Great Wall [2016 BDRip 1080p] potroks Скачать
1 | 0

28-11-2019 20:33  

Отключить всю рекламу на сайте

29-05-2017 15:35 Великая стена Скачать торрент  

хороший фильмpb.wtf



    Дорогой пользователь! Огромная просьба, поблагодарите релизера, оцените раздачу и оставьте свои комментарий, если Вы скачали Великая стена через торрент бесплатно! Внесите свою лепту в развитие PiratBit!
    Комментировать посты могут только пользователи прошедшие не сложную регистрацию
    Показать сообщения:    

    Великая стена через торрент
    Скачать бесплатно Великая стена
    Великая стена скачать торрент
    Великая стена смотреть онлайн
    Cкачать фильм Великая стена бесплатно
    Великая стена скачать торрент в хорошем качестве
    Великая стена смотреть онлайн бесплатно в хорошем качестве


    Вы не можете начинать темы
    Вы не можете отвечать на сообщения
    Вы не можете редактировать свои сообщения
    Вы не можете удалять свои сообщения
    Вы не можете голосовать в опросах
    Вы не можете прикреплять файлы к сообщениям
    Вы можете скачивать файлы