Anonymous, доброй ночи, присоединяйтесь к нам в Telegram!, здесь всегда актуальный адрес сайта, оперативная поддержка и многое другое!

>

5.5

iTunes

7.4

iTunes

7.9

iTunes

1

7.7

1 сезон

6.8

iTunes

7.3

1 сезон

13

6.7

1 сезон

8.3

RePack

30

ULTIMATE

pack

9.9

Лицензия

ВАЖНО

ИГРА 18+

pack

7.3

RePack

MK11

7.7

RePack

jed

7.8

RePack

fifa19

8.5

RePack

RDR2

RePack

NEED FOR SPEED™ PAYBACK

4 сезон

9 сезон

Бесстыжие 9 сезон

Все сериалы

все сериалы на PB.wtf

RePack

FAR CRY 5

Anonymous, доброй ночи, мы катастрофически не успеваем собрать деньги на оплату серверов, помогите нам пожалуйста 5,10,15р., для нас важна любая помощь . В качестве благодарности мы отключим Вам всю рекламу на сайте (укажите свой ник в строку Ваше имя)!

×
  
Magnet ссылка

Родина / Чужой среди своих / Homeland / 6 сезон / Серии 1-12 из 12 (Лесли Линка Глаттер, Кит Гордон) [2016, триллер, драма, детектив, WEBRip] MVO [LostFilm] pb.wtf

Родина через торрент pb.wtf

Раздают: 1 [ 0 KB/s ]
Размер: 7.33 GB | Добавлен: 4 года 6 мес. назад | Торрент скачан:258 раз
Смотреть онлайн Родина | Скачать    Ребята, помогите собрать деньги на оплату серверов!!!

12-04-2017 21:29 Родина Скачать торрент  

Родина / Чужой среди своих / Homeland
Год выпуска: 2016
Страна: США
Жанр: триллер, драма, детектив
Всего серий: 12
Продолжительность: 12 х ~ 00:50:00
Перевод: Профессиональный многоголосый -
Субтитры: отсутствуют

Режиссер: Лесли Линка Глаттер, Кит Гордон, Джон Дэвид Коулз

rating

В ролях:

Клер Дэйнс, Руперт Френд, Себастьян Кох, Миранда Отто, Александр Фелинг, Сара Соколович, Ф. Мюррэй Абрахам, Мэнди Пэтинкин, Нина Хосс, Алекс Ланипекун, Сурадж Шарма, Уильям Р. Моусес, Аллан Кордунер, Марк Иванир, Кристиан Серритиелло, Рене Давид Ифра

Описание:

Спустя несколько месяцев после событий предыдущего сезона, Кэрри вернулась в США и живёт в Бруклине, Нью-Йорке. Сейчас она работает в фонде, который оказывает помощь мусульманам, живущим в США. Сезон включает президентские выборы, и его действия разворачиваются между днём выборов и днём инаугурации.

Качество: WEBRip
Формат: AVI
Видео кодек: XviD
Аудио кодек: MP3

Видео: 720x400 (1.80:1), 23,976 fps, XviD build 50 ~1475 kbps avg, 0.214 bit/pixel
Аудио#1: Rus: 48.0 KHz, MPEG Layer 3, 2 ch, ~128.00 kbps avg(LostFilm)
Аудио#2: Eng: 48.0 KHz, MPEG Layer 3, 2 ch, ~128.00 kbps avg
скриншот   скриншот   скриншот   скриншот  

Общее
Полное имя : D:\Homeland (Season 06) LostFilm\Homeland.S06E01.WEBRip.Rus.Eng.LostFilm.avi
Формат : AVI
Формат/Информация : Audio Video Interleave
Размер файла : 650 Мбайт
Продолжительность : 52 м. 6 с.
Общий поток : 1745 Кбит/сек
Программа кодирования : VirtualDubMod 1.5.10.3 | www.virtualdub-fr.org || (build 2550/release)
Библиотека кодирования : VirtualDubMod build 2550/release

Видео
Идентификатор : 0
Формат : MPEG-4 Visual
Профиль формата : Advanced Simple@L5
Параметр BVOP формата : 1
Параметр QPel формата : Нет
Параметр GMC формата : Без точки перехода
Параметр матрицы формата : Default (MPEG)
Идентификатор кодека : XVID
Идентификатор кодека/Подсказка : XviD
Продолжительность : 52 м. 6 с.
Битрейт : 1475 Кбит/сек
Ширина : 720 пикселей
Высота : 400 пикселей
Соотношение сторон : 16:9
Частота кадров : 23,976 (23976/1000) кадра/сек
Цветовое пространство : YUV
Субдискретизация насыщенности : 4:2:0
Битовая глубина : 8 бит
Тип развёртки : Прогрессивная
Метод сжатия : С потерями
Бит/(Пиксели*Кадры) : 0.214
Размер потока : 550 Мбайт (85%)
Библиотека кодирования : XviD 73

Аудио #1
Идентификатор : 1
Формат : MPEG Audio
Версия формата : Version 1
Профиль формата : Layer 3
Режим : Joint stereo
Расширение режима : MS Stereo
Идентификатор кодека : 55
Идентификатор кодека/Подсказка : MP3
Продолжительность : 52 м. 6 с.
Вид битрейта : Постоянный
Битрейт : 128 Кбит/сек
Каналы : 2 канала
Частота : 48,0 КГц
Метод сжатия : С потерями
Размер потока : 47,7 Мбайт (7%)
Выравнивание : Соединение по промежуткам
Продолжительность промежутка : 42 мс. (1,00 видеокадр)
Время предзагрузки промежутка : 504 мс.

Аудио #2
Идентификатор : 2
Формат : MPEG Audio
Версия формата : Version 1
Профиль формата : Layer 3
Режим : Joint stereo
Расширение режима : MS Stereo
Идентификатор кодека : 55
Идентификатор кодека/Подсказка : MP3
Продолжительность : 52 м. 6 с.
Вид битрейта : Постоянный
Битрейт : 128 Кбит/сек
Каналы : 2 канала
Частота : 48,0 КГц
Метод сжатия : С потерями
Размер потока : 47,7 Мбайт (7%)
Выравнивание : Соединение по промежуткам
Продолжительность промежутка : 42 мс. (1,00 видеокадр)
Время предзагрузки промежутка : 504 мс.

pb.wtf



Скачать Родина через торрент http://s016.radikal.ru/i335/1704/c4/82c6058f4c97.png Скачать, смотреть онлайн Родина бесплантно в хорошем качестве Описание: Спустя несколько месяцев после событий предыдущего сезона, Кэрри вернулась в США и живёт в Бруклине, Нью-Йорке. Сейчас она ... 9.9 10 9
Торрент: Зарегистрирован [2017-04-12 21:29] · скачан: 258 раз
Статус: √ проверено
Размер: 7.33 GB
Как cкачать? Как скачать Родина через торрент | UTorrent

% Раздел Тема Автор DL S | L
Родина / Чужой среди своих / Homeland [ 7.1 GB ] Родина / Чужой среди своих / Homeland / 6 сезон / Серии 1-12 из 12 [2017 WEB-DLRip] MVO [Амедиа] bober100 Скачать
1 | 0

28-11-2019 20:33  

Отключить всю рекламу на сайте

    Дорогой пользователь! Огромная просьба, поблагодарите релизера, оцените раздачу и оставьте свои комментарий, если Вы скачали Родина через торрент бесплатно!
    Комментировать посты могут только пользователи прошедшие не сложную регистрацию
    Показать сообщения:    

    Родина через торрент
    Скачать бесплатно Родина
    Родина скачать торрент
    Родина смотреть онлайн
    Cкачать фильм Родина бесплатно
    Родина скачать торрент в хорошем качестве
    Родина смотреть онлайн бесплатно в хорошем качестве


    Вы не можете начинать темы
    Вы не можете отвечать на сообщения
    Вы не можете редактировать свои сообщения
    Вы не можете удалять свои сообщения
    Вы не можете голосовать в опросах
    Вы не можете прикреплять файлы к сообщениям
    Вы можете скачивать файлы