Ссылка на приватное зеркало нашего сайта всего за 1$. Внимание количество ограничено!!!

2 сезон

iTunes

1 сезон

1

iTunes

iTunes

iTunes

1 сезон

RePack

30

ИГРА 18+

pack

ВАЖНО

!!Акция!!

Alien_RageХит недели

RePack

MK11
pack

Забери бонус

RePack

jed

!!Акция!!

Alien_Rage

RePack

fifa19

RePack

Assassins Creed: Odyssey

RePack

NEED FOR SPEED™ PAYBACK

4 сезон

9 сезон

Бесстыжие 9 сезон

Все сериалы

все сериалы на PB.wtf

RePack

FAR CRY 5
  

Дни и годы Николая Батыгина (01-05 серия из 05) (Леонид Пчёлкин) [1987, СССР, драма, биография, SATRip-AVC от AVP Studio] pb.wtf

Дни и годы Николая Батыгина через торрент pb.wtf

Размер: 4.36 GB | Добавлен: 3 года 6 мес. назад | Торрент скачан:22 раза
Скачать  

13-04-2017 09:10 Дни и годы Николая Батыгина Скачать торрент  

Дни и годы Николая Батыгина
Страна: СССР
Производство: ТО "Экран"

Жанр: драма, биография
Год выпуска: 1987
Продолжительность: 06:10:53 (01:16:29 + 01:12:31 + 01:14:38 + 01:15:45 + 01:11:30)

Перевод: Не требуется
Cубтитры: нет
Оригинальная аудиодорожка: русский

Режиссер: Леонид Пчёлкин

В ролях:
Вадим Спиридонов, Валерий Баринов, Ольга Остроумова, Женя Пивоваров, Михаил Жигалов, Борис Плотников, Андрей Гусев, Олег Борисов, Анастасия Вертинская, Александр Михайлов, Юрий Дубровин, Паул Буткевич, Дмитрий Попов, Андрей Манке, Вера Глаголева, Елизавета Никищихина, Яна Друзь, Надежда Бутырцева, Сережа Тихонов, Екатерина Григорьева, Александр Сафронов, Елена Фадеева, Наталья Егорова, Валентин Никулин, Светлана Крючкова, Дальвин Щербаков, Андрей Смоляков, Марина Зудина, Ольга Сирина, Ирина Гордина...
Полный список актёров

Описание:
Сериал о трудной судьбе мастера-стеклодува Николая Батыгина.
В одной из глухих губерний царской России живёт семья Батыгиных, глава которой - Разумей - настоящий волшебник хрустальных дел. По вине хозяина стекольного завода Пальцева талантливый мастер и его жена гибнут, а их сын Коля вынужден идти на тяжелую работу на тот же завод. После революции Николай Батыгин становится лучшим мастером-стеклодувом. Он женится на Екатерине Пальцевой, у них рождаются сын и дочь. В годы Великой Отечественной войны Екатерина умирает. Вернувшись с фронта на завод, Николай борется за сохранение традиций высокого мастерства стеклодувов. Его приглашают на работу в оборонную промышленность. Проходят годы. Сын Батыгина становится директором стекольного завода, дочь работает в проектном бюро в Москве, а сам Батыгин, уйдя на пенсию, как и раньше, передаёт свой опыт молодым рабочим.

Источник: DVB
Качество видео: SATRip-AVC
Формат видео: MKV

Видео: 712->752x564 (4:3), 25 fps, H264 ~ 1491 kbps avg, 0.149 bit/pixel
Аудио: 48 kHz, Dolby Digital AC3 2.0, 192 kbps

Раздача от:
Общее
Полное имя : Dni.i.gody.Nikolaya.Batygina.1987.SATRip-AVC_[New-team]_by_AVP_Studio.mkv
Формат : Matroska
Версия формата : Version 2
Размер файла : 922 Мбайт
Продолжительность : 1 ч. 16 м.
Общий поток : 1685 Кбит/сек
Дата кодирования : UTC 2017-04-11 14:16:57
Программа кодирования : mkvmerge v6.1.0 ('Old Devil') built on Mar 4 2013 09:10:42
Библиотека кодирования : libebml v1.3.0 + libmatroska v1.4.0

Видео
Идентификатор : 1
Формат : AVC
Формат/Информация : Advanced Video Codec
Профиль формата : High@L4.1
Параметр CABAC формата : Да
Параметр ReFrames формата : 10 кадров
Идентификатор кодека : V_MPEG4/ISO/AVC
Продолжительность : 1 ч. 16 м.
Битрейт : 1491 Кбит/сек
Ширина : 712 пикселей
Высота : 566 пикселя
Соотношение сторон : 4:3
Режим частоты кадров : Постоянный
Частота кадров : 25,000 кадров/сек
Цветовое пространство : YUV
Субдискретизация насыщенности : 4:2:0
Битовая глубина : 8 бит
Тип развёртки : Прогрессивная
Бит/(Пиксели*Кадры) : 0.149
Размер потока : 798 Мбайт (87%)
Библиотека кодирования : x264 core 148 r2597 e86f3a1
Настройки программы : cabac=1 / ref=10 / deblock=1:-2:-1 / analyse=0x3:0x113 / me=umh / subme=10 / psy=1 / psy_rd=1.00:0.00 / mixed_ref=1 / me_range=32 / chroma_me=1 / trellis=2 / 8x8dct=1 / cqm=0 / deadzone=21,11 / fast_pskip=1 / chroma_qp_offset=-2 / threads=6 / lookahead_threads=1 / sliced_threads=0 / nr=0 / decimate=0 / interlaced=0 / bluray_compat=0 / constrained_intra=0 / bframes=8 / b_pyramid=2 / b_adapt=2 / b_bias=0 / direct=3 / weightb=1 / open_gop=0 / weightp=2 / keyint=250 / keyint_min=25 / scenecut=40 / intra_refresh=0 / rc=2pass / mbtree=0 / bitrate=1491 / ratetol=1.0 / qcomp=0.60 / qpmin=0 / qpmax=69 / qpstep=4 / cplxblur=20.0 / qblur=0.5 / ip_ratio=1.40 / pb_ratio=1.30 / aq=1:1.00
Default : Да
Forced : Нет

Аудио
Идентификатор : 2
Формат : AC-3
Формат/Информация : Audio Coding 3
Параметр Endianness формата : Big
Идентификатор кодека : A_AC3
Продолжительность : 1 ч. 16 м.
Вид битрейта : Постоянный
Битрейт : 192 Кбит/сек
Каналы : 2 канала
Расположение каналов : Front: L R
Частота : 48,0 КГц
Частота кадров : 31,250 кадров/сек (1536 spf)
Битовая глубина : 16 бит
Метод сжатия : С потерями
Размер потока : 105 Мбайт (11%)
Default : Да
Forced : Нет
pb.wtf



Скачать Дни и годы Николая Батыгина через торрент http://i013.radikal.ru/1704/95/6ee18a0e4d0a.png Скачать фильм Дни и годы Николая Батыгина через торрент бесплантно в хорошем качестве Описание:Сериал о трудной судьбе мастера-стеклодува Николая Батыгина.В одной из глухих губерний царской России живёт семья Батыгиных, глава ... 9.7 10 3
Info! Золотая раздача, скачанное не засчитывается.
Торрент: Зарегистрирован [2017-04-13 09:10] · скачан: 22 раз
Статус: √ проверено
Размер: 4.36 GB
Как cкачать? Как скачать Дни и годы Николая Батыгина через торрент | qTorrent

% Раздел Тема Автор DL S | L
Наши сериалы [ 4.36 GB ] Дни и годы Николая Батыгина [1987 СССР биография SATRip от AVP Studio] AVP Studio Скачать
1 | 0

28-11-2019 20:33  

Отключить всю рекламу на сайте

    Дорогой пользователь! Огромная просьба, поблагодарите релизера, оцените раздачу и оставьте свои комментарий, если Вы скачали Дни и годы Николая Батыгина через торрент бесплатно! Внесите свою лепту в развитие PiratBit!
    Комментировать посты могут только пользователи прошедшие не сложную регистрацию
    Показать сообщения:    

    Дни и годы Николая Батыгина через торрент
    Скачать бесплатно Дни и годы Николая Батыгина
    Дни и годы Николая Батыгина скачать торрент
    Дни и годы Николая Батыгина смотреть онлайн
    Cкачать фильм Дни и годы Николая Батыгина бесплатно
    Дни и годы Николая Батыгина скачать торрент в хорошем качестве
    Дни и годы Николая Батыгина смотреть онлайн бесплатно в хорошем качестве


    Вы не можете начинать темы
    Вы не можете отвечать на сообщения
    Вы не можете редактировать свои сообщения
    Вы не можете удалять свои сообщения
    Вы не можете голосовать в опросах
    Вы не можете прикреплять файлы к сообщениям
    Вы можете скачивать файлы