MEGA SALE -50% FORZA HORIZON 4 ULTIMATE+ВСЕ DLC+ОНЛАЙН всего за 599р. 299 руб. (супер цена). Внимание количество ограничено!!!

iTunes

1+1

iTunes

мы

iTunes

1

iTunes

Чернобыль

1 сезон

Ральф против интернета

Лицензия

ПШазам

Лицензия

Игра престолов

Лицензия

30
pack

ВАЖНО

!!Акция!!

Alien_RageХит недели

RePack

Resident Evil 21

ИГРА 18+

pack

RePack

Metro:Exodus

!!Акция!!

Alien_Rage

RePack

fifa19

RePack

Assassins Creed: Odyssey

RePack

NEED FOR SPEED™ PAYBACK

3 сезон

9 сезон

Бесстыжие 9 сезон

Все сериалы

все сериалы на PB.wtf

RePack

FAR CRY 5
Ребята, катастрофически не хватает 7730р. для оплаты серверов за ИЮЛЬ (всвязи с блокировками трафик упал в 3 раза), 1-2р., выручайте.
  

Приключения Одиссея / Ulisse (Марио Камерини) [1954 г., Приключения, DVDRip-AVC, Дубляж] от ExKinoRay pb.wtf

Приключения Одиссея через торрент pb.wtf

Размер: 2.65 GB | Добавлен: 2 года 4 мес. назад | Торрент скачан:34 раза
Скачать  

13-04-2017 17:47 Приключения Одиссея Скачать торрент  

Приключения Одиссея / Ulisse
Год выпуска: 1954
Страна: Италия, Франция, США
Жанр: Приключения
Продолжительность: 01:37:40
Перевод: Дубляж

Режиссер: Марио Камерини

Бюджет: $500 000
Премьера в мире: 6 октября 1954

rating

В ролях: Кирк Дуглас, Сильвана Мангано, Энтони Куинн, Россана Подеста, Жак Дюмениль, Даниэль Ивернель, Сильви, Франко Интерленги, Елена Зарески, Эви Мальтальяти

Описание: Классическая история Гомера о подвигах и приключениях древнегреческого героя Одиссея во время его возвращения домой к жене Пенелопе после Троянской войны. Какие только испытания не выпали на долю Одиссея — его пытались охмурить прелестные и возбужденные одинокие женщины, захватить в плен и порвать на куски громадные и безобразные циклопы, отравить коварные и беспощадные правители маленьких прибрежных средиземноморских государств. Но упрямый и бесстрашный Одиссей неумолимо и непреклонно «рвался на Запад», домой, к теплой и верной своей жене Пенелопе…

Доп. информация: Перевод: СОВЕТСКИЙ ДУБЛЯЖ (к/с "Союзмультфильм")

Качество: DVDRip-AVC
Формат: MKV
Видео кодек: MPEG4
Аудио кодек: AC3
Видео: MPEG-4 AVC, 3500 Кбит/с, 702x510@748x510, 25 кадров/сек
Аудио#1: Русский (AC3, 2 ch, 192 Кбит/с, 48 КГц)
Аудио#2: Итальянский (AC3, 2 ch, 192 Кбит/с, 48 КГц)
Релиз от:




raw [info]: 702x510p 16:15 @ 25/1 fps (cfr)
x264 [info]: using SAR=16/15
x264 [info]: using cpu capabilities: MMX2 SSE2Fast LZCNT
x264 [info]: profile High, level 4.1
x264 [info]: frame I:917 Avg QP:17.62 size: 71500
x264 [info]: frame P:30121 Avg QP:19.89 size: 35938
x264 [info]: frame B:115468 Avg QP:22.00 size: 12262
x264 [info]: consecutive B-frames: 1.3% 1.8% 5.8% 19.7% 10.6% 58.3% 2.1% 0.4% 0.1% 0.0% 0.0% 0.0% 0.0% 0.0% 0.0% 0.0% 0.0%
-----
Общее
Уникальный идентификатор : 237801525334205799497428149153283541849 (0xB2E6E8689BF8AEB1AE1695FC9BDD8B59)
Полное имя : E:\Ulisse.1954.DVDRip-AVC.ExKinoRay.mkv
Формат : Matroska
Версия формата : Version 2
Размер файла : 2,65 Гбайт
Продолжительность : 1 ч. 37 м.
Общий поток : 3886 Кбит/сек
Дата кодирования : UTC 2017-04-13 14:23:32
Программа кодирования : mkvmerge v7.8.0 ('River Man') 32bit built on Apr 3 2015 12:11:22
Библиотека кодирования : libebml v1.3.1 + libmatroska v1.4.2

Видео
Идентификатор : 1
Формат : AVC
Формат/Информация : Advanced Video Codec
Профиль формата : High@L4.1
Параметр CABAC формата : Да
Параметр ReFrames формата : 14 кадров
Идентификатор кодека : V_MPEG4/ISO/AVC
Продолжительность : 1 ч. 37 м.
Битрейт : 3500 Кбит/сек
Ширина : 702 пикселя
Высота : 510 пикселей
Соотношение сторон : 3:2
Соотношение сторон в оригинале : 3:2
Режим частоты кадров : Постоянный
Частота кадров : 25,000 кадров/сек
Цветовое пространство : YUV
Субдискретизация насыщенности : 4:2:0
Битовая глубина : 8 бит
Тип развёртки : Прогрессивная
Бит/(Пиксели*Кадры) : 0.391
Размер потока : 2,34 Гбайт (88%)
Библиотека кодирования : x264 core 148 r2638 7599210
Настройки программы : cabac=1 / ref=14 / deblock=1:-2:-2 / analyse=0x3:0x133 / me=umh / subme=10 / psy=1 / psy_rd=1.05:0.15 / mixed_ref=1 / me_range=32 / chroma_me=1 / trellis=2 / 8x8dct=1 / cqm=0 / deadzone=21,11 / fast_pskip=0 / chroma_qp_offset=-3 / threads=4 / lookahead_threads=1 / sliced_threads=0 / nr=0 / decimate=0 / interlaced=0 / bluray_compat=0 / constrained_intra=0 / bframes=16 / b_pyramid=2 / b_adapt=2 / b_bias=0 / direct=3 / weightb=1 / open_gop=0 / weightp=2 / keyint=250 / keyint_min=25 / scenecut=40 / intra_refresh=0 / rc=2pass / mbtree=0 / bitrate=3500 / ratetol=1.0 / qcomp=0.60 / qpmin=0 / qpmax=69 / qpstep=4 / cplxblur=20.0 / qblur=0.5 / ip_ratio=1.40 / pb_ratio=1.30 / aq=1:1.00
Язык : English
Default : Да
Forced : Нет
Цветовой диапазон : Limited
Основные цвета : BT.601 NTSC
Характеристики трансфера : BT.601
Коэффициенты матрицы : BT.601

Аудио #1
Идентификатор : 2
Формат : AC-3
Формат/Информация : Audio Coding 3
Расширение режима : CM (complete main)
Параметр Endianness формата : Big
Идентификатор кодека : A_AC3
Продолжительность : 1 ч. 37 м.
Вид битрейта : Постоянный
Битрейт : 192 Кбит/сек
Каналы : 2 канала
Расположение каналов : Front: L R
Частота : 48,0 КГц
Частота кадров : 31,250 кадров/сек (1536 spf)
Метод сжатия : С потерями
Размер потока : 134 Мбайт (5%)
Язык : Russian
Default : Да
Forced : Нет

Аудио #2
Идентификатор : 3
Формат : AC-3
Формат/Информация : Audio Coding 3
Расширение режима : CM (complete main)
Параметр Endianness формата : Big
Идентификатор кодека : A_AC3
Продолжительность : 1 ч. 37 м.
Вид битрейта : Постоянный
Битрейт : 192 Кбит/сек
Каналы : 2 канала
Расположение каналов : Front: L R
Частота : 48,0 КГц
Частота кадров : 31,250 кадров/сек (1536 spf)
Метод сжатия : С потерями
Размер потока : 134 Мбайт (5%)
Язык : Italian
Default : Нет
Forced : Нет

pb.wtf



Скачать Приключения Одиссея через торрент http://i76.fastpic.ru/big/2015/1106/fb/2271b67976cd8dcb9bddfbf4877860fb.jpg Скачать фильм Приключения Одиссея через торрент бесплантно в хорошем качестве Описание: Классическая история Гомера о подвигах и приключениях древнегреческого героя Одиссея во время его возвращения домой к жене ... 10 10 2
Info! Золотая раздача, скачанное не засчитывается.
Торрент: Зарегистрирован [2017-04-13 17:47] · скачан: 34 раз
Статус: √ проверено
Размер: 2.65 GB
Как cкачать? Как скачать Приключения Одиссея через торрент | qTorrent


>> Регистрируемся здесь <<






Отзывы и комментарии о схеме читаем и пишем здесь: ---> Отзывы и комментарии о схеме

Новые благодарочки в телеграм довольных пользователей:
скриншот   скриншот   скриншот   скриншот   скриншот
    Дорогой пользователь! Огромная просьба, поблагодарите релизера, оцените раздачу и оставьте свои комментарий, если Вы скачали Приключения Одиссея через торрент бесплатно! Внесите свою лепту в развитие PiratBit!
    Комментировать посты могут только пользователи прошедшие не сложную регистрацию
    Показать сообщения:    

    Приключения Одиссея через торрент
    Скачать бесплатно Приключения Одиссея
    Приключения Одиссея скачать торрент
    Приключения Одиссея смотреть онлайн
    Cкачать фильм Приключения Одиссея бесплатно
    Приключения Одиссея скачать торрент в хорошем качестве
    Приключения Одиссея смотреть онлайн бесплатно в хорошем качестве


    Вы не можете начинать темы
    Вы не можете отвечать на сообщения
    Вы не можете редактировать свои сообщения
    Вы не можете удалять свои сообщения
    Вы не можете голосовать в опросах
    Вы не можете прикреплять файлы к сообщениям
    Вы можете скачивать файлы