Всегда рабочее зеркало без VPN и Proxy просто перед .vidak.icu напиши любое слово или цифру, Пример http://as1k.vidak.icu

MVO

MVO

1 сезон

1

1 сезон

iTunes

1 сезон

13

1 сезон

Deluxe

pack

Рекомендуем

Repack

30

ВАЖНО

RePack

MK11

RePack

jed

RePack

fifa19

RePack

RDR2

RePack

NEED FOR SPEED™ PAYBACK

Кинопоиск HD

6 сезон

 Острые козырьки 6 сезон

Все сериалы

все сериалы на PB.wtf

RePack

FAR CRY 5
  
Magnet ссылка

Балерина / Ballerina (Эрик Саммер, Эрик Уорин) [2016, мультфильм, мюзикл, комедия, HDRip] Дубляж - [Лицензия / iTunes] pb.wtf

Балерина через торрент pb.wtf

Размер: 1.37 GB | Добавлен: 5 лет 3 мес. назад | Торрент скачан:363 раза
Смотреть онлайн Балерина | Скачать    Ребята, помогите собрать деньги на оплату серверов!!!

13-04-2017 19:08 Балерина Скачать торрент  

Балерина / Ballerina

Год выпуска: 2016
Страна: Франция, Канада
Жанр: мультфильм, мюзикл, комедия, приключения, семейный

Продолжительность: 01:29:23
Перевод: Дубляж - [Лицензия / iTunes]
Режиссер: Эрик Саммер , Эрик Уорин
В ролях:

Эль Фаннинг (Félicie Milliner, озвучка), Карли Рэй Джепсен (Odette, озвучка), Мэдди Зиглер (Camille Le Haut, озвучка), Терренс Скаммелл (Mérante / Postman, озвучка), Tamir Kapelian (Rudolph / Mathurin, озвучка), Джули Ханер (Régine Le Haut, озвучка), Джо Шеридан (Director of Opera, озвучка), Элана Дункельман (Dora / Rosita, озвучка), Шошана Спелинг (Nora, озвучка), Джэми Уотсон (Greasy Guard / Janitor, озвучка), Бронуэн Мэнтел (Mother Superior, озвучка), Мэл Брукс
Описание:
События развернутся вокруг маленькой сиротки, которая, следуя за мечтой стать балериной, приезжает в Париж в 1879 году.
Рейтинг:

Качество: HDRip
Формат: AVI
Видео: XviD, 720x304 (2.35:1), 1709 kbps, 24 fps, 0,325 bpp
Аудио: AC3 / 5.1 / 48 kHz / 384 kbps /
General
Complete name : E:\BaLLeRettKa.2016.D.HDRip.14OOMB.avi
Format : AVI
Format/Info : Audio Video Interleave
File size : 1.37 GiB
Duration : 1 h 29 min
Overall bit rate : 2 189 kb/s
Writing application : VirtualDubMod 1.5.10.2 (build 2540/release)
Writing library : VirtualDubMod build 2540/release

Video
ID : 0
Format : MPEG-4 Visual
Format profile : Advanced [email protected]
Format settings, BVOP : 2
Format settings, QPel : No
Format settings, GMC : No warppoints
Format settings, Matrix : Default (MPEG)
Codec ID : XVID
Codec ID/Hint : XviD
Duration : 1 h 29 min
Bit rate : 1 710 kb/s
Width : 720 pixels
Height : 304 pixels
Display aspect ratio : 2.35:1
Frame rate : 24.000 FPS
Color space : YUV
Chroma subsampling : 4:2:0
Bit depth : 8 bits
Scan type : Progressive
Compression mode : Lossy
Bits/(Pixel*Frame) : 0.325
Stream size : 1.07 GiB (78%)
Writing library : XviD 1.2.1 (UTC 2008-12-04)

Audio
ID : 1
Format : AC-3
Format/Info : Audio Coding 3
Mode extension : CM (complete main)
Format settings, Endianness : Big
Codec ID : 2000
Duration : 1 h 29 min
Bit rate mode : Constant
Bit rate : 384 kb/s
Channel(s) : 6 channels
Channel positions : Front: L C R, Side: L R, LFE
Sampling rate : 48.0 kHz
Frame rate : 31.250 FPS (1536 spf)
Compression mode : Lossy
Stream size : 246 MiB (18%)
Alignment : Split accross interleaves
pb.wtf



Скачать Балерина через торрент http://i2.imageban.ru/out/2017/04/13/4efe2e2aafa89d017201af3b771342ab.png Скачать, смотреть онлайн Балерина бесплантно в хорошем качестве Описание: События развернутся вокруг маленькой сиротки, которая, следуя за мечтой стать балериной, приезжает в Париж в 1879 ... 9.8 10 6
Info! Золотая раздача, скачанное не засчитывается.
Торрент: Зарегистрирован [2017-04-13 19:08] · скачан: 363 раз
Статус: √ проверено
Размер: 1.37 GB
Как cкачать? Как скачать Балерина через торрент | UTorrent

% Раздел Тема Автор DL S | L
3D Мультфильмы [ 7.63 GB ] Балерина в 3Д / Ballerina 3D [2016 Мультфильм Мюзикл BDRip 1080p] OverUnder / Вертикальная стереопара serega768 Скачать
1 | 0
Гонзо [ 1.21 GB ] Оттраханные Аппетитные Балерины 8 / Petite Ballerinas Fucked 8 [2019 18+ Teens All Sex Big Cocks Petite Small Tits WEB-DLRip] sheker187 Скачать
1 | 0
T Фильмы (мультфильмы) cо спонсором показа (Новинки AVI/MKV) [ 3.68 GB ] Балерина / The Ballerina [2017 WEB-DL 720p] MVO ["Синема УС"] bober100 Скачать
1 | 0
T Фильмы (мультфильмы) cо спонсором показа (Новинки AVI/MKV) [ 1.37 GB ] Балерина / The Ballerina [2017 WEB-DLRip] MVO ["Синема УС"] bober100 Скачать
1 | 0
Иностранные мультфильмы [ 1.7 GB ] Балерина / Ballerina [2016 Мультфильм мюзикл полнометражный BDRip-AVC] DUB [] bober100 Скачать
1 | 0
Зарубежные Мультфильмы (BDRip 1080p, 720p, Blu-ray, BD-Remux) [ 2.79 GB ] Балерина / Ballerina [2016 мультфильм мюзикл BDRip 720p] - [] - ExKinoRay Enigma2010 Скачать
1 | 0
Иностранные мультфильмы [ 1.36 GB ] Балерина / Ballerina [2016 мультфильм мюзикл BDRip-AVC] - [] - ExKinoRay Enigma2010 Скачать
1 | 0

28-11-2019 20:33  

Отключить вcю реклaмy на сайте

    Дорогой пользователь! Огромная просьба, поблагодарите релизера, оцените раздачу и оставьте свои комментарий, если Вы скачали Балерина через торрент бесплатно!
    Комментировать посты могут только пользователи прошедшие не сложную регистрацию
    Показать сообщения:    

    Балерина через торрент
    Скачать бесплатно Балерина
    Балерина скачать торрент
    Балерина смотреть онлайн
    Cкачать фильм Балерина бесплатно
    Балерина скачать торрент в хорошем качестве
    Балерина смотреть онлайн бесплатно в хорошем качестве


    Вы не можете начинать темы
    Вы не можете отвечать на сообщения
    Вы не можете редактировать свои сообщения
    Вы не можете удалять свои сообщения
    Вы не можете голосовать в опросах
    Вы не можете прикреплять файлы к сообщениям
    Вы можете скачивать файлы