2 сезон

iTunes

1 сезон

1

iTunes

iTunes

iTunes

1 сезон

RePack

30

ИГРА 18+

pack

ВАЖНО

!!Акция!!

Alien_RageХит недели

RePack

MK11
pack

Забери бонус

RePack

jed

!!Акция!!

Alien_Rage

RePack

fifa19

RePack

Assassins Creed: Odyssey

RePack

NEED FOR SPEED™ PAYBACK

4 сезон

9 сезон

Бесстыжие 9 сезон

Все сериалы

все сериалы на PB.wtf

RePack

FAR CRY 5
  

Налет / Серии: 1-8 из 8 (Карен Оганесян) [2017 г., Детектив, криминал, HDTV (1080i) Оригинал] pb.wtf

Налет через торрент pb.wtf

Размер: 18.4 GB | Добавлен: 3 года 6 мес. назад | Торрент скачан:121 раз
Скачать  

13-04-2017 19:12 Налет Скачать торрент  

Налёт
Год выпуска: 2017
Страна: Россия
Жанр: Детектив, криминал
Продолжительность: 8 х ~ 00:50:00
Перевод: Оригинальный
Субтитры: Нет

Режиссер: Карен Оганесян

В ролях: Владимир Машков, Александр Паль, Денис Шведов, Андрей Смоляков, Лукерья Ильяшенко, Андрей Ташков, Сергей Шнырёв, Тамара Саксина, Егор Пазенко, Глеб Подгородинский, Александр Галибин, Павел Чинарёв, Виталий Коваленко, Ирис Иванова, Григорий Зельцер, Заза Чичинадзе, Александра Ребенок, Алексей Гришин, Сергей Угрюмов, Евгения Короткевич, Варвара Шаблакова, Григорий Чабан, Дмитрий Чеботарев, Сергей Козик, Нина Дворжецкая, Грант Тохатян, Александр Устюгов, Екатерина Рокотова, Кирилл Полухин, Константин Самоуков

Описание: В калининградском следственном изоляторе совершает самоубийство майор Андрей Рыжов, обвиняемый в превышении должностных полномочий. Четверо его коллег — Олег Каплан, Павел Карпенко, Оксана Голикова и Федор Вачевский — уверены в невиновности своего бывшего руководителя и для того, чтобы восстановить его доброе имя, начинают собственное расследование произошедшего.

Качество: HDTV (1080i)
Формат: TS
Видео кодек: AVC
Аудио кодек: AC3-MP2
Видео: MPEG-4 AVC, (1920x1080),6000 Кбит/с, 25.000 кадра/сек
Аудио#1: AC3, 6 ch,384 kbps (Rus) 48.0 KHz Оригинал
Аудио#2: MP2, 2 ch, 192 kbps (Rus) 48.0 KHz Оригинал
скриншот   скриншот   скриншот  

Тип потока: Видео
Длительность: 00:51:23
Кодек: AVC
Кодек/описание: Advanced Video Codec
Кодек/профиль: High@L4.0
Кодек/ID: 27
Кодек/CABAC: Yes
Кодек/ReFrames: 3 frames
Размеры изображения: 1920 x 1080 (16:9)
Частота кадров: 25.000 fps
Размер потока: 2.01 GiB (86%)
Битрейт: 5 612 Kbps
Стандарт: Component
Цветовое пространство: YUV
Тип развёртки: Interlaced
Колориметрия: 4:2:0
Глубина: 8 bits
:
Тип потока: Звук #1
Язык: Russian
Длительность: 00:51:23.552
Кодек: AC-3
Кодек/описание: Audio Coding 3
Кодек/ID: 6
Частота дискретизации: 48.0 KHz
Каналов: 6 channels
Битрейт: 384 Kbps
Битрейт/тип: Constant
Размер потока: 141 MiB (6%)
Глубина: 16 bits
Метод сжатия: Lossy
:
Тип потока: Звук #2
Язык: Russian
Длительность: 00:51:23.592
Кодек: MPEG Audio
Кодек/профиль: Layer 2
Кодек/ID: 3
Частота дискретизации: 48.0 KHz
Каналов: 2 channels
Битрейт: 192 Kbps
Битрейт/тип: Constant
Размер потока: 70.6 MiB (3%)
Метод сжатия: Lossy

pb.wtf



Скачать Налет через торрент http://pic1.kartinco.top/images/11/awbbi.jpg Скачать фильм Налет через торрент бесплантно в хорошем качестве Описание: В калининградском следственном изоляторе совершает самоубийство майор Андрей Рыжов, обвиняемый в превышении должностных ... 10 10 8
Info! Золотая раздача, скачанное не засчитывается.
Торрент: Зарегистрирован [2017-04-13 19:12] · скачан: 121 раз
Статус: √ проверено
Размер: 18.4 GB
Как cкачать? Как скачать Налет через торрент | qTorrent

% Раздел Тема Автор DL S | L
Зарубежные сериалы [ 15.67 GB ] Налёт / Braquo [2009 BDRip 720p] + Оригинал VintMosina Скачать
1 | 0

28-11-2019 20:33  

Отключить всю рекламу на сайте

30-04-2017 09:38 Налет Скачать торрент  

Сериал хорош! Автору спасибо за труды! pb.wtf



    Дорогой пользователь! Огромная просьба, поблагодарите релизера, оцените раздачу и оставьте свои комментарий, если Вы скачали Налет через торрент бесплатно! Внесите свою лепту в развитие PiratBit!
    Комментировать посты могут только пользователи прошедшие не сложную регистрацию
    Показать сообщения:    

    Налет через торрент
    Скачать бесплатно Налет
    Налет скачать торрент
    Налет смотреть онлайн
    Cкачать фильм Налет бесплатно
    Налет скачать торрент в хорошем качестве
    Налет смотреть онлайн бесплатно в хорошем качестве


    Вы не можете начинать темы
    Вы не можете отвечать на сообщения
    Вы не можете редактировать свои сообщения
    Вы не можете удалять свои сообщения
    Вы не можете голосовать в опросах
    Вы не можете прикреплять файлы к сообщениям
    Вы можете скачивать файлы