2 сезон

iTunes

1 сезон

1

iTunes

iTunes

iTunes

1 сезон

RePack

30

ИГРА 18+

pack

ВАЖНО

!!Акция!!

Alien_RageХит недели

RePack

MK11
pack

Забери бонус

RePack

jed

!!Акция!!

Alien_Rage

RePack

fifa19

RePack

Assassins Creed: Odyssey

RePack

NEED FOR SPEED™ PAYBACK

4 сезон

9 сезон

Бесстыжие 9 сезон

Все сериалы

все сериалы на PB.wtf

RePack

FAR CRY 5
  

Инферно / Inferno (Рон Ховард) [2016, боевик, триллер, детектив, приключения, BDRip 720p] DUB [Лицензия] pb.wtf

Инферно через торрент pb.wtf

Размер: 6.92 GB | Добавлен: 3 года 6 мес. назад | Торрент скачан:132 раза
Скачать  

13-04-2017 20:39 Инферно Скачать торрент  

Инферно / InfernoГод выпуска: 2016
Страна: Венгрия, США
Жанр: боевик, триллер, детектив, приключения
Продолжительность: 02:01:35
Перевод: Дубляж - [Лицензия]
Субтитры: Русские (forced, full), украинские (forced, full), английские

Режиссер: Рон Ховард

rating

В ролях:

Том Хэнкс, Фелисити Джонс, Омар Си, Ирфан Кхан, Сидсе Бабетт Кнудсен, Бен Фостер, Ана Улару, Ида Дарви

Описание:

Профессор Роберт Лэнгдон приходит в сознание в одной из итальянских больниц, полностью потеряв память. Местный врач Сиенна Брукс пытается помочь Роберту не только восстановить воспоминания, но и остановить загадочных злоумышленников, которые намерены распространить смертоносный вирус. Разгадка таинственной истории связана с «Адом» (ит. Inferno) - первой частью «Божественной комедии» Данте.

Качество: BDRip 720p
Формат: MKV
Видео кодек: H.264
Аудио кодек: AC3/DTS

Видео: 1280x688p (1.85:1), 23.976 fps, AVC MPEG-4 (H.264), High@L4.1 ~6000 kbps, 0.284 bit/pixel
Аудио#1: Русский: 48 kHz, AC3 Dolby Digital, 6 ch, ~640 kbps [Профессиональный (полное дублирование)]
Аудио#2: Английский: 48 kHz, DTS, 6 ch, ~1509 kbps [Оригинал]
скриншот   скриншот   скриншот   скриншот  

Общее
Уникальный идентификатор : 224280861981383968209868991974465446929 (0xA8BAEC3CE6F23F3EB46873285B51A411)
Полное имя : F:VideoInferno.2016.D.BDRip.720p.ExKinoRay.mkv
Формат : Matroska
Версия формата : Version 4 / Version 2
Размер файла : 6,92 Гбайт
Продолжительность : 2 ч. 1 м.
Общий поток : 8152 Кбит/сек
Название фильма : Inferno.2016 ***селезень***
Дата кодирования : UTC 2017-01-18 03:18:39
Программа кодирования : mkvmerge v8.3.0 ('Over the Horizon') 64bit
Библиотека кодирования : libebml v1.3.1 + libmatroska v1.4.2

Видео
Идентификатор : 1
Формат : AVC
Формат/Информация : Advanced Video Codec
Профиль формата : High@L4
Параметр CABAC формата : Да
Параметр ReFrames формата : 9 кадров
Идентификатор кодека : V_MPEG4/ISO/AVC
Продолжительность : 2 ч. 1 м.
Битрейт : 6000 Кбит/сек
Ширина : 1280 пикселей
Высота : 688 пикселей
Соотношение сторон : 1,85:1
Режим частоты кадров : Постоянный
Частота кадров : 23,976 (24000/1001) кадра/сек
Цветовое пространство : YUV
Субдискретизация насыщенности : 4:2:0
Битовая глубина : 8 бит
Тип развёртки : Прогрессивная
Бит/(Пиксели*Кадры) : 0.284
Размер потока : 5,10 Гбайт (74%)
Заголовок : Inferno.2016 ***селезень***
Библиотека кодирования : x264 core 142 r2431+42 c69a006 tMod [8-bit@all X86_64]
Настройки программы : cabac=1 / ref=9 / deblock=1:-3:-3 / analyse=0x3:0x113 / me=umh / subme=11 / psy=1 / fade_compensate=0.00 / psy_rd=1.05:1.05 / mixed_ref=1 / me_range=48 / chroma_me=1 / trellis=2 / 8x8dct=1 / cqm=0 / deadzone=21,11 / fast_pskip=0 / chroma_qp_offset=-4 / threads=16 / lookahead_threads=2 / sliced_threads=0 / nr=0 / decimate=0 / interlaced=0 / bluray_compat=0 / constrained_intra=0 / fgo=0 / bframes=8 / b_pyramid=2 / b_adapt=2 / b_bias=0 / direct=3 / weightb=1 / open_gop=0 / weightp=2 / keyint=240 / keyint_min=23 / scenecut=40 / intra_refresh=0 / rc_lookahead=150 / rc=2pass / mbtree=0 / bitrate=6000 / ratetol=1.0 / qcomp=0.70 / qpmin=0:0:0 / qpmax=69:69:69 / qpstep=4 / cplxblur=20.0 / qblur=0.5 / vbv_maxrate=25000 / vbv_bufsize=31250 / nal_hrd=none / filler=0 / ip_ratio=1.30 / pb_ratio=1.20 / aq=2:0.80 / aq-sensitivity=10.00 / aq-factor=1.00:1.00:1.00 / aq2=0 / aq3=0
Язык : English
Default : Да
Forced : Нет
Цветовой диапазон : Limited
Основные цвета : BT.709
Характеристики трансфера : BT.709
Коэффициенты матрицы : BT.709

Аудио #1
Идентификатор : 2
Формат : AC-3
Формат/Информация : Audio Coding 3
Расширение режима : CM (complete main)
Параметр Endianness формата : Big
Идентификатор кодека : A_AC3
Продолжительность : 2 ч. 1 м.
Вид битрейта : Постоянный
Битрейт : 640 Кбит/сек
Каналы : 6 каналов
Расположение каналов : Front: L C R, Side: L R, LFE
Частота : 48,0 КГц
Частота кадров : 31,250 кадров/сек (1536 spf)
Битовая глубина : 16 бит
Метод сжатия : С потерями
Размер потока : 557 Мбайт (8%)
Заголовок : Dub [License]
Язык : Russian
Default : Да
Forced : Нет

Аудио #2
Идентификатор : 3
Формат : DTS
Формат/Информация : Digital Theater Systems
Режим : 16
Параметр Endianness формата : Big
Идентификатор кодека : A_DTS
Продолжительность : 2 ч. 1 м.
Вид битрейта : Постоянный
Битрейт : 1509 Кбит/сек
Каналы : 6 каналов
Расположение каналов : Front: L C R, Side: L R, LFE
Частота : 48,0 КГц
Частота кадров : 93,750 кадра/сек (512 spf)
Битовая глубина : 24 бит
Метод сжатия : С потерями
Размер потока : 1,28 Гбайт (19%)
Заголовок : Original
Язык : English
Default : Нет
Forced : Нет

Текст #1
Идентификатор : 4
Формат : UTF-8
Идентификатор кодека : S_TEXT/UTF8
Идентификатор кодека/Информация : UTF-8 Plain Text
Продолжительность : 1 ч. 53 м.
Битрейт : 3 бит/сек
Count of elements : 48
Размер потока : 2,58 Кбайт (0%)
Заголовок : Forced
Язык : Russian
Default : Да
Forced : Нет

Текст #2
Идентификатор : 5
Формат : UTF-8
Идентификатор кодека : S_TEXT/UTF8
Идентификатор кодека/Информация : UTF-8 Plain Text
Продолжительность : 1 ч. 55 м.
Битрейт : 90 бит/сек
Count of elements : 1399
Размер потока : 76,5 Кбайт (0%)
Заголовок : Full [iTunes]
Язык : Russian
Default : Нет
Forced : Нет

Текст #3
Идентификатор : 6
Формат : UTF-8
Идентификатор кодека : S_TEXT/UTF8
Идентификатор кодека/Информация : UTF-8 Plain Text
Продолжительность : 1 ч. 50 м.
Битрейт : 3 бит/сек
Count of elements : 47
Размер потока : 2,53 Кбайт (0%)
Заголовок : Forced
Язык : Ukrainian
Default : Нет
Forced : Нет

Текст #4
Идентификатор : 7
Формат : UTF-8
Идентификатор кодека : S_TEXT/UTF8
Идентификатор кодека/Информация : UTF-8 Plain Text
Продолжительность : 1 ч. 55 м.
Битрейт : 89 бит/сек
Count of elements : 1398
Размер потока : 75,0 Кбайт (0%)
Заголовок : Full [iTunes]
Язык : Ukrainian
Default : Нет
Forced : Нет

Текст #5
Идентификатор : 8
Формат : UTF-8
Идентификатор кодека : S_TEXT/UTF8
Идентификатор кодека/Информация : UTF-8 Plain Text
Продолжительность : 57 м. 24 с.
Битрейт : 2 бит/сек
Count of elements : 29
Размер потока : 1,01 Кбайт (0%)
Заголовок : Forced
Язык : English
Default : Нет
Forced : Нет

Текст #6
Идентификатор : 9
Формат : UTF-8
Идентификатор кодека : S_TEXT/UTF8
Идентификатор кодека/Информация : UTF-8 Plain Text
Продолжительность : 1 ч. 55 м.
Битрейт : 55 бит/сек
Count of elements : 1360
Размер потока : 46,5 Кбайт (0%)
Заголовок : Full [iTunes]
Язык : English
Default : Нет
Forced : Нет

Меню
00:00:00.000 : en:00:00:00.000
00:04:13.545 : en:00:04:13.545
00:12:32.919 : en:00:12:32.919
00:23:43.005 : en:00:23:43.005
00:36:03.161 : en:00:36:03.161
00:51:11.652 : en:00:51:11.652
00:59:16.595 : en:00:59:16.595
01:01:42.908 : en:01:01:42.908
01:07:42.517 : en:01:07:42.517
01:13:25.234 : en:01:13:25.234
01:20:02.256 : en:01:20:02.256
01:24:37.364 : en:01:24:37.364
01:31:25.271 : en:01:31:25.271
01:35:42.111 : en:01:35:42.111
01:40:51.128 : en:01:40:51.128
01:52:27.908 : en:01:52:27.908

pb.wtf



Скачать Инферно через торрент http://pic1.kartinco.top/images/11/dzlho.jpg Скачать фильм Инферно через торрент бесплантно в хорошем качестве Описание: Профессор Роберт Лэнгдон приходит в сознание в одной из итальянских больниц, полностью потеряв память. Местный врач Сиенна Брукс ... 10 10 9
Торрент: Зарегистрирован [2017-04-13 20:39] · скачан: 132 раз
Статус: √ проверено
Размер: 6.92 GB
Как cкачать? Как скачать Инферно через торрент | qTorrent

% Раздел Тема Автор DL S | L
Фильмы 2016 [DVDrip, WEB-DLRip, HDrip] (DUB, MVO) [ 2.91 GB ] Инферно / Inferno [2016 BDRip-AVC от _denis_100 / NNNB] _denis_100 Скачать
1 | 0
# Фильмы (мультфильмы) cо спонсором показа (Новинки AVI/MKV) [ 3.2 GB ] Отель Инферно: Храм боли / Hotel Inferno 2: The Cathedral of Pain [2017 BDRip 720p] MVO ["Синема УС"] bober100 Скачать
1 | 0
T Фильмы (мультфильмы) cо спонсором показа (Новинки AVI/MKV) [ 1.37 GB ] Отель Инферно: Храм боли / Hotel Inferno 2: The Cathedral of Pain [2017 HDRip] MVO ["Синема УС"] bober100 Скачать
2 | 0
Фильмы [HD 720p, 1080p] (Хороший звук DUB, MVO) [ 6.6 GB ] Инферно / Inferno [2016 BDRip 1080p HEVC ()] Мичман37 Скачать
1 | 0
Фильмы (Blu-ray, BD-Remux, HDDVD) [ 26.7 GB ] Инферно / Inferno [2016 BD Remux 1080p] 2xAVO [В. Дохалов А. Гаврилов] +DUB [] bober100 Скачать
1 | 0
Ultra HD (UHD: 2K, 4K, 8K) — видео сверхвысокой чёткости [ 46.31 GB ] Инферно / Inferno [2016 UHD BDRemux 2160p] 2xAVO [В. Дохалов А. Гаврилов] + +DUB [] bober100 Скачать
1 | 0
Ultra HD (UHD: 2K, 4K, 8K) — видео сверхвысокой чёткости [ 32.22 GB ] Инферно / Inferno [2016 UHD WEBRip 2160p] 2xDUB [] bober100 Скачать
1 | 0

28-11-2019 20:33  

Отключить всю рекламу на сайте

    Дорогой пользователь! Огромная просьба, поблагодарите релизера, оцените раздачу и оставьте свои комментарий, если Вы скачали Инферно через торрент бесплатно! Внесите свою лепту в развитие PiratBit!
    Комментировать посты могут только пользователи прошедшие не сложную регистрацию
    Показать сообщения:    

    Инферно через торрент
    Скачать бесплатно Инферно
    Инферно скачать торрент
    Инферно смотреть онлайн
    Cкачать фильм Инферно бесплатно
    Инферно скачать торрент в хорошем качестве
    Инферно смотреть онлайн бесплатно в хорошем качестве


    Вы не можете начинать темы
    Вы не можете отвечать на сообщения
    Вы не можете редактировать свои сообщения
    Вы не можете удалять свои сообщения
    Вы не можете голосовать в опросах
    Вы не можете прикреплять файлы к сообщениям
    Вы можете скачивать файлы