Ссылка на приватное зеркало нашего сайта всего за 1$. Внимание количество ограничено!!!

2 сезон

iTunes

1 сезон

1

iTunes

iTunes

iTunes

1 сезон

RePack

30

ИГРА 18+

pack

ВАЖНО

!!Акция!!

Alien_RageХит недели

RePack

MK11
pack

Забери бонус

RePack

jed

!!Акция!!

Alien_Rage

RePack

fifa19

RePack

Assassins Creed: Odyssey

RePack

NEED FOR SPEED™ PAYBACK

4 сезон

9 сезон

Бесстыжие 9 сезон

Все сериалы

все сериалы на PB.wtf

RePack

FAR CRY 5
  

Налет / 1-8 серии из 8 (Карен Оганесян) [2017, криминал, детектив, HDTVRip] pb.wtf

Налет через торрент pb.wtf

Раздают: 1 [ 0 KB/s ]
Размер: 5.68 GB | Добавлен: 3 года 6 мес. назад | Торрент скачан:191 раз
Скачать  

13-04-2017 21:20 Налет Скачать торрент  

Налет
Год выпуска: 2017
Страна: Россия
Жанр: криминал, детектив
Всего серий: 8
Продолжительность: 8 х ~ 00:50:00
Субтитры: отсутствуют

Режиссер: Карен Оганесян



В ролях:

Владимир Машков, Александр Паль, Денис Шведов, Андрей Смоляков, Лукерья Ильяшенко, Андрей Ташков, Сергей Шнырёв, Тамара Саксина, Егор Пазенко, Глеб Подгородинский, Александр Галибин, Павел Чинарёв, Виталий Коваленко, Ирис Иванова, Григорий Зельцер, Заза Чичинадзе, Александра Ребенок, Алексей Гришин, Сергей Угрюмов, Евгения Короткевич, Варвара Шаблакова, Григорий Чабан, Дмитрий Чеботарев, Сергей Козик, Нина Дворжецкая, Грант Тохатян, Александр Устюгов, Екатерина Рокотова, Кирилл Полухин, Константин Самоуков

Описание:

Адаптация французского криминального сериала «Налет» (Braquo).
В следственном изоляторе ГУСБ МВД г. Калининграда происходит ЧП: совершает самоубийство майор Андрей Рыжов, обвиняемый в преступлении, которого не совершал. Четверо его коллег – Олег Каплан, Павел Карпенко, Оксана Голикова и Федор Вачевский, уверенные в невиновности и порядочности друга, начинают собственное расследование произошедшего. Для них дело чести вернуть Рыжову доброе имя и восстановить справедливость...

Качество: HDTVRip
Формат: AVI
Видео кодек: XviD
Аудио кодек: AC3

Видео: 720x400 (1.80:1), 25 fps, XviD build 73 ~1800 kbps avg, 0.256 bit/pixel
Аудио#1: 48 kHz, AC3 Dolby Digital, 2/0 (L,R) ch, ~192 kbps
скриншот   скриншот   скриншот   скриншот  

Общее
Полное имя : D:\Nalet.HDTVRip.GeneralFilm\Nalet.01.HDTVRip.GeneralFilm.avi
Формат : AVI
Формат/Информация : Audio Video Interleave
Размер файла : 736 Мбайт
Продолжительность : 51 м. 23 с.
Общий поток : 2002 Кбит/сек
Программа кодирования : VirtualDubMod 1.5.10.3 | www.virtualdub-fr.org || (build 2550/release)
Библиотека кодирования : VirtualDubMod build 2550/release

Видео
Идентификатор : 0
Формат : MPEG-4 Visual
Профиль формата : Advanced Simple@L5
Параметр BVOP формата : 1
Параметр QPel формата : Нет
Параметр GMC формата : Без точки перехода
Параметр матрицы формата : Выборочная
Идентификатор кодека : XVID
Идентификатор кодека/Подсказка : XviD
Продолжительность : 51 м. 23 с.
Битрейт : 1800 Кбит/сек
Ширина : 720 пикселей
Высота : 400 пикселей
Соотношение сторон : 16:9
Частота кадров : 25,000 кадров/сек
Цветовое пространство : YUV
Субдискретизация насыщенности : 4:2:0
Битовая глубина : 8 бит
Тип развёртки : Прогрессивная
Метод сжатия : С потерями
Бит/(Пиксели*Кадры) : 0.250
Размер потока : 662 Мбайт (90%)
Библиотека кодирования : XviD 73

Аудио
Идентификатор : 1
Формат : AC-3
Формат/Информация : Audio Coding 3
Расширение режима : CM (complete main)
Параметр Endianness формата : Big
Идентификатор кодека : 2000
Продолжительность : 51 м. 23 с.
Вид битрейта : Постоянный
Битрейт : 192 Кбит/сек
Каналы : 2 канала
Расположение каналов : Front: L R
Частота : 48,0 КГц
Частота кадров : 31,250 кадров/сек (1536 spf)
Метод сжатия : С потерями
Размер потока : 70,6 Мбайт (10%)
Выравнивание : Разделение по промежуткам
Продолжительность промежутка : 40 мс. (1,00 видеокадр)
Время предзагрузки промежутка : 500 мс.

pb.wtf



Скачать Налет через торрент http://s020.radikal.ru/i716/1704/15/79fda9269dd8.jpg Скачать фильм Налет через торрент бесплантно в хорошем качестве Описание: Адаптация французского криминального сериала «Налет» (Braquo). В следственном изоляторе ГУСБ МВД г. Калининграда происходит ЧП: ... 9.9 10 10
Торрент: Зарегистрирован [2017-04-13 21:20] · скачан: 191 раз
Статус: √ проверено
Размер: 5.68 GB
Как cкачать? Как скачать Налет через торрент | qTorrent

% Раздел Тема Автор DL S | L
Наши сериалы [ 9.7 GB ] Налет / Серии: 1-8 из 8 [2017 WEB-DL 720p] bober100 Скачать
7 | 0
Наши сериалы [ 18.4 GB ] Налет / Серии: 1-8 из 8 [2017 HDTV Оригинал] Бумер Скачать
1 | 0
Наши сериалы [ 6.28 GB ] Налет / 1-8 серии из 8 [2017 WEB-DLRip-AVC] bober100 Скачать
1 | 1
Наши сериалы [ 5.16 GB ] Налет / Серии: 1-8 из 8 [2017 WEB-DLRip-AVC] - ExKinoRay Enigma2010 Скачать
1 | 0
Наши сериалы [ 5.43 GB ] Налет / Серия 1-8 из 8 [2017 SATRip] oleg8 Скачать
1 | 0
Наши сериалы [ 4.8 GB ] Налет / Серии: 1-8 из 8 [2017 SATRip-AVC] aleksan55 Скачать
1 | 0
Зарубежные сериалы [ 7.23 GB ] Налёт / Braquo / Сезон 4 / Серии 1-8 из 8 [2016 WEB-DLRip-AVC] MVO [BaibaKo] GEKADOL Скачать
1 | 1

28-11-2019 20:33  

Отключить всю рекламу на сайте

    Дорогой пользователь! Огромная просьба, поблагодарите релизера, оцените раздачу и оставьте свои комментарий, если Вы скачали Налет через торрент бесплатно! Внесите свою лепту в развитие PiratBit!
    Комментировать посты могут только пользователи прошедшие не сложную регистрацию
    Показать сообщения:    

    Налет через торрент
    Скачать бесплатно Налет
    Налет скачать торрент
    Налет смотреть онлайн
    Cкачать фильм Налет бесплатно
    Налет скачать торрент в хорошем качестве
    Налет смотреть онлайн бесплатно в хорошем качестве


    Вы не можете начинать темы
    Вы не можете отвечать на сообщения
    Вы не можете редактировать свои сообщения
    Вы не можете удалять свои сообщения
    Вы не можете голосовать в опросах
    Вы не можете прикреплять файлы к сообщениям
    Вы можете скачивать файлы