Ссылка на приватное зеркало нашего сайта всего за 1$. Внимание количество ограничено!!!

2 сезон

iTunes

1 сезон

1

iTunes

iTunes

iTunes

1 сезон

RePack

30

ИГРА 18+

pack

ВАЖНО

!!Акция!!

Alien_RageХит недели

RePack

MK11
pack

Забери бонус

RePack

jed

!!Акция!!

Alien_Rage

RePack

fifa19

RePack

Assassins Creed: Odyssey

RePack

NEED FOR SPEED™ PAYBACK

4 сезон

9 сезон

Бесстыжие 9 сезон

Все сериалы

все сериалы на PB.wtf

RePack

FAR CRY 5
  

Балерина / Ballerina (Эрик Саммер, Эрик Уорин) [2016, мультфильм, мюзикл, комедия, BDRip-AVC] Дубляж - [Лицензия] - ExKinoRay pb.wtf

Балерина через торрент pb.wtf

Размер: 1.36 GB | Добавлен: 2 года 11 мес. назад | Торрент скачан:107 раз
Скачать  

14-04-2017 03:46 Балерина Скачать торрент  

Информация о фильме
Название: Балерина
Оригинальное название: Ballerina
Год выпуска: 2016
Страна: Франция, Канада
Студия: Caramel Film, Main Journey, Quad Productions
Жанр: Мультфильм, мюзикл, приключения, семейный, полнометражный
Продолжительность: 01:29:23
Перевод: Дублированный | Лицензия
Режиссер: Эрик Саммер, Эрик Уорин
В ролях: Элль Фэннинг, Дэйн ДеХаан, Мэдди Зиглер, Карли Рэй Джепсен, Камилль Коттен, Элана Дункельман, Джули Ханер, Кэйси Чейз, Шошана Спелинг, Лорен Морель

Описание: Сказочно красивый Париж 1884 года. Обычная девочка из сиротского приюта мечтает только об одном — стать знаменитой балериной. Впереди ее ждет самое волшебное приключение всей ее жизни. И ничто не сможет встать у нее на пути.



Файл
Формат: MKV
Качество: BDRip-AVC
Видео: AVC, 720x302 (2.40:1), 1737 kbps, 24,000 fps, 0,333 bpp
Аудио: 48 kHz, AC3, 5.1, 448 Kbps | RUS |

Навигация по главам: есть
General
Unique ID : 177203757438148404774666465304712896084 (0x855033C80501BB47B397F45C8F60DE54)
Complete name : D:\Balerina.2016.BDRip.AVC.ExKinoRay.mkv
Format : Matroska
Format version : Version 2
File size : 1.36 GiB
Duration : 1 h 29 min
Overall bit rate : 2 185 kb/s
Movie name : Balerina (2016) from ExKinoRay
Encoded date : UTC 2017-11-13 22:05:32
Writing application : mkvmerge v5.6.0 ('Kenya Kane') built on May 27 2012 16:44:04
Writing library : libebml v1.2.3 + libmatroska v1.3.0

Video
ID : 1
Format : AVC
Format/Info : Advanced Video Codec
Format profile : High@L4.1
Format settings, CABAC : Yes
Format settings, ReFrames : 10 frames
Codec ID : V_MPEG4/ISO/AVC
Duration : 1 h 29 min
Bit rate : 1 737 kb/s
Width : 720 pixels
Height : 302 pixels
Display aspect ratio : 2.40:1
Frame rate mode : Constant
Frame rate : 24.000 FPS
Color space : YUV
Chroma subsampling : 4:2:0
Bit depth : 8 bits
Scan type : Progressive
Bits/(Pixel*Frame) : 0.333
Stream size : 1.06 GiB (78%)
Title : Enigma
Writing library : x264 core 144 r2525 40bb568
Encoding settings : cabac=1 / ref=10 / deblock=1:-2:-2 / analyse=0x3:0x113 / me=umh / subme=10 / psy=1 / psy_rd=1.05:0.10 / mixed_ref=1 / me_range=32 / chroma_me=1 / trellis=2 / 8x8dct=1 / cqm=0 / deadzone=21,11 / fast_pskip=1 / chroma_qp_offset=-3 / threads=12 / lookahead_threads=2 / sliced_threads=0 / nr=0 / decimate=0 / interlaced=0 / bluray_compat=0 / constrained_intra=0 / bframes=9 / b_pyramid=2 / b_adapt=2 / b_bias=0 / direct=3 / weightb=1 / open_gop=0 / weightp=2 / keyint=240 / keyint_min=24 / scenecut=40 / intra_refresh=0 / rc_lookahead=40 / rc=2pass / mbtree=0 / bitrate=1737 / ratetol=1.0 / qcomp=0.60 / qpmin=0 / qpmax=51 / qpstep=4 / cplxblur=20.0 / qblur=0.5 / vbv_maxrate=50000 / vbv_bufsize=62500 / nal_hrd=none / filler=0 / ip_ratio=1.40 / pb_ratio=1.30 / aq=1:1.00
Default : Yes
Forced : No
Color range : Limited
Color primaries : BT.709
Transfer characteristics : BT.709
Matrix coefficients : BT.709

Audio
ID : 2
Format : AC-3
Format/Info : Audio Coding 3
Mode extension : CM (complete main)
Format settings, Endianness : Big
Codec ID : A_AC3
Duration : 1 h 29 min
Bit rate mode : Constant
Bit rate : 448 kb/s
Channel(s) : 6 channels
Channel positions : Front: L C R, Side: L R, LFE
Sampling rate : 48.0 kHz
Frame rate : 31.250 FPS (1536 spf)
Compression mode : Lossy
Stream size : 286 MiB (21%)
Title : Dub (BD Rus)
Language : Russian
Default : Yes
Forced : No

Menu
00:00:00.000 : en:00:00:00.000
00:04:54.000 : en:00:04:54.000
00:10:58.292 : en:00:10:58.292
00:13:54.125 : en:00:13:54.125
00:18:00.875 : en:00:18:00.875
00:23:18.750 : en:00:23:18.750
00:28:03.542 : en:00:28:03.542
00:32:55.000 : en:00:32:55.000
00:36:14.458 : en:00:36:14.458
00:41:19.833 : en:00:41:19.833
00:44:54.708 : en:00:44:54.708
00:50:25.000 : en:00:50:25.000
00:56:41.792 : en:00:56:41.792
01:02:39.458 : en:01:02:39.458
01:08:48.750 : en:01:08:48.750
01:13:12.667 : en:01:13:12.667
01:17:43.958 : en:01:17:43.958
01:22:49.917 : en:01:22:49.917
Релиз от:

Автор релиза: pb.wtf



Скачать Балерина через торрент http://i2.imageban.ru/out/2017/04/13/4efe2e2aafa89d017201af3b771342ab.png Скачать фильм Балерина через торрент бесплантно в хорошем качестве Описание: Сказочно красивый Париж 1884 года. Обычная девочка из сиротского приюта мечтает только об одном — стать знаменитой балериной. ... 10 10 8
Info! Золотая раздача, скачанное не засчитывается.
Торрент: Зарегистрирован [2017-11-14 00:29] · скачан: 107 раз
Статус: √ проверено
Размер: 1.36 GB
Как cкачать? Как скачать Балерина через торрент | qTorrent

% Раздел Тема Автор DL S | L
Зарубежные Мультфильмы (BDRip 1080p, 720p, Blu-ray, BD-Remux) [ 2.79 GB ] Балерина / Ballerina [2016 мультфильм мюзикл BDRip 720p] - [] - ExKinoRay Enigma2010 Скачать
1 | 0

28-11-2019 20:33  

Отключить всю рекламу на сайте

14-11-2017 00:29 Балерина Скачать торрент  

Замена на лицензию.pb.wtf



    Дорогой пользователь! Огромная просьба, поблагодарите релизера, оцените раздачу и оставьте свои комментарий, если Вы скачали Балерина через торрент бесплатно! Внесите свою лепту в развитие PiratBit!
    Комментировать посты могут только пользователи прошедшие не сложную регистрацию
    Показать сообщения:    

    Балерина через торрент
    Скачать бесплатно Балерина
    Балерина скачать торрент
    Балерина смотреть онлайн
    Cкачать фильм Балерина бесплатно
    Балерина скачать торрент в хорошем качестве
    Балерина смотреть онлайн бесплатно в хорошем качестве


    Вы не можете начинать темы
    Вы не можете отвечать на сообщения
    Вы не можете редактировать свои сообщения
    Вы не можете удалять свои сообщения
    Вы не можете голосовать в опросах
    Вы не можете прикреплять файлы к сообщениям
    Вы можете скачивать файлы