Ссылка на приватное зеркало нашего сайта всего за 1$. Внимание количество ограничено!!!

2 сезон

iTunes

1 сезон

1

iTunes

iTunes

iTunes

1 сезон

RePack

30

ИГРА 18+

pack

ВАЖНО

!!Акция!!

Alien_RageХит недели

RePack

MK11
pack

Забери бонус

RePack

jed

!!Акция!!

Alien_Rage

RePack

fifa19

RePack

Assassins Creed: Odyssey

RePack

NEED FOR SPEED™ PAYBACK

4 сезон

9 сезон

Бесстыжие 9 сезон

Все сериалы

все сериалы на PB.wtf

RePack

FAR CRY 5
  

Налет / 1-8 серии из 8 (Карен Оганесян) [2017, криминал, детектив, WEB-DLRip-AVC] pb.wtf

Налет через торрент pb.wtf

Размер: 6.28 GB | Добавлен: 3 года 6 мес. назад | Торрент скачан:324 раза
Скачать  

14-04-2017 10:42 Налет Скачать торрент  

НалетГод выпуска: 2017
Страна: Россия
Жанр: криминал, детектив
Всего серий: 8
Продолжительность: 8 х ~ 00:50:00
Субтитры: отсутствуют

Режиссер: Карен Оганесян



В ролях:

Владимир Машков, Александр Паль, Денис Шведов, Андрей Смоляков, Лукерья Ильяшенко, Андрей Ташков, Сергей Шнырёв, Тамара Саксина, Егор Пазенко

Описание:

Адаптация французского криминального сериала «Налет» (Braquo).
В следственном изоляторе ГУСБ МВД г. Калининграда происходит ЧП: совершает самоубийство майор Андрей Рыжов, обвиняемый в преступлении, которого не совершал. Четверо его коллег – Олег Каплан, Павел Карпенко, Оксана Голикова и Федор Вачевский, уверенные в невиновности и порядочности друга, начинают собственное расследование произошедшего. Для них дело чести вернуть Рыжову доброе имя и восстановить справедливость...

Качество: WEB-DLRip-AVC
Формат: MKV
Видео кодек: H.264
Аудио кодек: AC3

Видео: 1024x576 (16:9), 25 fps, AVC MPEG-4 (x264), High@L4.1, ~ 2000 kbps avg, 0.136 bit/pixel
Аудио#1: 48 kHz, AC3, 2/0 (L,R) ch, ~192 kbps
скриншот   скриншот   скриншот   скриншот   скриншот  

Общее
Уникальный идентификатор : 192074453133443733512671064976466942622 (0x908031AF7FB5CB1A80E7EC2902A49A9E)
Полное имя : C:\Nalet.2017.WEB-DLRip(AVC).\Nalet.(01.seriya).2017.WEB-DLRip(AVC).mkv
Формат : Matroska
Версия формата : Version 2
Размер файла : 815 Мбайт
Продолжительность : 51 м. 56 с.
Общий поток : 2194 Кбит/сек
Дата кодирования : UTC 2017-04-10 18:21:14
Программа кодирования : mkvmerge v7.8.0 ('River Man') 32bit built on Apr 3 2015 12:11:22
Библиотека кодирования : libebml v1.3.1 + libmatroska v1.4.2

Видео
Идентификатор : 1
Формат : AVC
Формат/Информация : Advanced Video Codec
Профиль формата : High@L4.1
Параметр CABAC формата : Да
Параметр ReFrames формата : 10 кадров
Идентификатор кодека : V_MPEG4/ISO/AVC
Продолжительность : 51 м. 56 с.
Битрейт : 2000 Кбит/сек
Ширина : 1024 пикселя
Высота : 576 пикселей
Соотношение сторон : 16:9
Режим частоты кадров : Постоянный
Частота кадров : 25,000 кадров/сек
Цветовое пространство : YUV
Субдискретизация насыщенности : 4:2:0
Битовая глубина : 8 бит
Тип развёртки : Прогрессивная
Бит/(Пиксели*Кадры) : 0.136
Размер потока : 728 Мбайт (89%)
Библиотека кодирования : x264 core 146 r2538 121396c
Настройки программы : cabac=1 / ref=10 / deblock=1:-3:-3 / analyse=0x3:0x133 / me=umh / subme=10 / psy=1 / psy_rd=1.00:0.07 / mixed_ref=1 / me_range=48 / chroma_me=1 / trellis=2 / 8x8dct=1 / cqm=0 / deadzone=21,11 / fast_pskip=0 / chroma_qp_offset=-3 / threads=6 / lookahead_threads=1 / sliced_threads=0 / nr=0 / decimate=0 / interlaced=0 / bluray_compat=0 / constrained_intra=0 / bframes=10 / b_pyramid=2 / b_adapt=2 / b_bias=0 / direct=3 / weightb=1 / open_gop=0 / weightp=2 / keyint=250 / keyint_min=25 / scenecut=40 / intra_refresh=0 / rc_lookahead=40 / rc=2pass / mbtree=0 / bitrate=2000 / ratetol=1.0 / qcomp=0.60 / qpmin=0 / qpmax=69 / qpstep=4 / cplxblur=20.0 / qblur=0.5 / vbv_maxrate=50000 / vbv_bufsize=62500 / nal_hrd=none / filler=0 / ip_ratio=1.40 / pb_ratio=1.30 / aq=1:1.00
Default : Да
Forced : Нет
Цветовой диапазон : Limited
Основные цвета : BT.709
Характеристики трансфера : BT.709
Коэффициенты матрицы : BT.709

Аудио
Идентификатор : 2
Формат : AC-3
Формат/Информация : Audio Coding 3
Параметр Endianness формата : Big
Идентификатор кодека : A_AC3
Продолжительность : 51 м. 56 с.
Вид битрейта : Постоянный
Битрейт : 192 Кбит/сек
Каналы : 2 канала
Расположение каналов : Front: L R
Частота : 48,0 КГц
Частота кадров : 31,250 кадров/сек (1536 spf)
Битовая глубина : 16 бит
Метод сжатия : С потерями
Размер потока : 71,3 Мбайт (9%)
ServiceKind/String : Complete Main
Default : Да
Forced : Нет

pb.wtf



Скачать Налет через торрент http://rudb.org/img/2017_04/i58ec55b88d3c8.jpg Скачать фильм Налет через торрент бесплантно в хорошем качестве Описание: Адаптация французского криминального сериала «Налет» (Braquo). В следственном изоляторе ГУСБ МВД г. Калининграда происходит ЧП: ... 9.6 10 12
Торрент: Зарегистрирован [2017-04-14 10:42] · скачан: 324 раз
Статус: √ проверено
Размер: 6.28 GB
Как cкачать? Как скачать Налет через торрент | qTorrent

% Раздел Тема Автор DL S | L
Наши сериалы [ 9.7 GB ] Налет / Серии: 1-8 из 8 [2017 WEB-DL 720p] bober100 Скачать
2 | 0
Наши сериалы [ 18.4 GB ] Налет / Серии: 1-8 из 8 [2017 HDTV Оригинал] Бумер Скачать
1 | 0
Наши сериалы [ 5.16 GB ] Налет / Серии: 1-8 из 8 [2017 WEB-DLRip-AVC] - ExKinoRay Enigma2010 Скачать
1 | 0
Наши сериалы [ 5.68 GB ] Налет / 1-8 серии из 8 [2017 HDTVRip] bober100 Скачать
1 | 0
Наши сериалы [ 5.43 GB ] Налет / Серия 1-8 из 8 [2017 SATRip] oleg8 Скачать
1 | 0
Наши сериалы [ 4.8 GB ] Налет / Серии: 1-8 из 8 [2017 SATRip-AVC] aleksan55 Скачать
1 | 0
Зарубежные сериалы [ 7.23 GB ] Налёт / Braquo / Сезон 4 / Серии 1-8 из 8 [2016 WEB-DLRip-AVC] MVO [BaibaKo] GEKADOL Скачать
1 | 0

28-11-2019 20:33  

Отключить всю рекламу на сайте

15-04-2017 05:23 Налет Скачать торрент  

Надо же было такую хрень наснимать!!!pb.wtf



15-04-2017 07:23 Налет Скачать торрент  

бездарность и плагиатpb.wtf



15-04-2017 08:54 Налет Скачать торрент  

наверное проще, "впаривать пиплу", раскрученный сюжет. А придумать стоящее самому у режисику мозгов "0". Вот и "парят" плагиат.pb.wtf



    Дорогой пользователь! Огромная просьба, поблагодарите релизера, оцените раздачу и оставьте свои комментарий, если Вы скачали Налет через торрент бесплатно! Внесите свою лепту в развитие PiratBit!
    Комментировать посты могут только пользователи прошедшие не сложную регистрацию
    Показать сообщения:    

    Налет через торрент
    Скачать бесплатно Налет
    Налет скачать торрент
    Налет смотреть онлайн
    Cкачать фильм Налет бесплатно
    Налет скачать торрент в хорошем качестве
    Налет смотреть онлайн бесплатно в хорошем качестве


    Вы не можете начинать темы
    Вы не можете отвечать на сообщения
    Вы не можете редактировать свои сообщения
    Вы не можете удалять свои сообщения
    Вы не можете голосовать в опросах
    Вы не можете прикреплять файлы к сообщениям
    Вы можете скачивать файлы