новый адрес пиратбит piratbit
Мега распродажа FORZA HORIZON 4 ULTIMATE+ВСЕ DLC+ОНЛАЙН всего за 499р. 349 руб. (супер цена). Внимание количество ограничено!!!

iTunes

1+1

iTunes

мы

iTunes

1

iTunes

Чернобыль

iTunes

Ральф против интернета

Лицензия

ПШазам

Лицензия

Игра престолов

Лицензия

30
pack

ВАЖНО

!!Акция!!

Alien_RageХит недели

RePack

Resident Evil 21

ИГРА 18+

pack

RePack

Metro:Exodus

!!Акция!!

Alien_Rage

RePack

fifa19

RePack

Assassins Creed: Odyssey

RePack

NEED FOR SPEED™ PAYBACK

3 сезон

9 сезон

Бесстыжие 9 сезон

Все сериалы

все сериалы на PB.wtf

RePack

FAR CRY 5
Ребята, катастрофически не хватает 1900р. для оплаты серверов за Октябрь (всвязи с блокировками трафик упал в 3 раза), 1-2р., выручайте.
  

Ночной патруль (Владимир Сухобоков) [1957, СССР, криминал, детектив, SATRip от AVP Studio] pb.wtf

Ночной патруль через торрент pb.wtf

Размер: 1.09 GB | Добавлен: 2 года 6 мес. назад | Торрент скачан:5 раз
Скачать  

15-04-2017 08:54 Ночной патруль Скачать торрент  

Ночной патруль
Страна: СССР
Производство: Киностудия им. М. Горького

Жанр: криминал, детектив
Год выпуска: 1957
Продолжительность: 01:33:29

Перевод: Не требуется
Cубтитры: нет
Оригинальная аудиодорожка: русский

Режиссер: Владимир Сухобоков

В ролях:
Лев Свердлин, Марк Бернес, Вадим Грачёв, Валентина Ушакова, Владимир Андреев, Евгений Гуров, Юрий Киреев, Евгений Буренков, Григорий Кириллов, Владимир Владиславский, Татьяна Окуневская, Зоя Фёдорова, Степан Бубнов, Сергей Филиппов...
Об актёрах подробней

Описание:
Детектив о работниках советской милиции. После того, как бухгалтер обнаружил в оформлении документов неточность - махинации зам. директора базы, который вместе с директорами магазинов сбывал награбленное, он сообщил об этом зав. базой. Ночью был взломан сейф и похищены документы. Вскоре был убит и бухгалтер. Комиссар милиции Кречетов и лейтенант Касьянов, влюбленный в дочь погибшего, начали розыск, усложнившийся из-за того, что в город вернулся рецидивист Огонек....

Источник: DVB
Качество видео: SATRip
Формат видео: AVI

Видео: 688x512 (4:3), 25 fps, XviD ~ 1465 kbps avg, 0.166 bit/pixel
Аудио: 48 kHz, Dolby Digital AC3 2.0, 192 kbps

Раздача от:
Общее
Полное имя : Nochnoy.patrul.1957.SATRip_[New-team]_by_AVP_Studio.avi
Формат : AVI
Формат/Информация : Audio Video Interleave
Размер файла : 1,09 Гбайт
Продолжительность : 1 ч. 33 м.
Общий поток : 1666 Кбит/сек
Программа кодирования : VirtualDubMod 1.5.10.3 | www.virtualdub-fr.org || (build 2550/release)
Библиотека кодирования : VirtualDubMod build 2550/release

Видео
Идентификатор : 0
Формат : MPEG-4 Visual
Профиль формата : Advanced Simple@L5
Параметр BVOP формата : 1
Параметр QPel формата : Нет
Параметр GMC формата : Без точки перехода
Параметр матрицы формата : Выборочная
Идентификатор кодека : XVID
Идентификатор кодека/Подсказка : XviD
Продолжительность : 1 ч. 33 м.
Битрейт : 1465 Кбит/сек
Ширина : 688 пикселей
Высота : 512 пикселей
Соотношение сторон : 4:3
Частота кадров : 25,000 кадров/сек
Цветовое пространство : YUV
Субдискретизация насыщенности : 4:2:0
Битовая глубина : 8 бит
Тип развёртки : Прогрессивная
Метод сжатия : С потерями
Бит/(Пиксели*Кадры) : 0.166
Размер потока : 979 Мбайт (88%)
Библиотека кодирования : XviD 73

Аудио
Идентификатор : 1
Формат : AC-3
Формат/Информация : Audio Coding 3
Параметр Endianness формата : Big
Идентификатор кодека : 2000
Продолжительность : 1 ч. 33 м.
Вид битрейта : Постоянный
Битрейт : 192 Кбит/сек
Каналы : 2 канала
Расположение каналов : Front: L R
Частота : 48,0 КГц
Частота кадров : 31,250 кадров/сек (1536 spf)
Битовая глубина : 16 бит
Метод сжатия : С потерями
Размер потока : 128 Мбайт (12%)
Выравнивание : Разделение по промежуткам
Продолжительность промежутка : 40 мс. (1,00 видеокадр)
Время предзагрузки промежутка : 500 мс
pb.wtf



Скачать Ночной патруль через торрент http://s019.radikal.ru/i640/1704/6d/10ac732b1ac9.png Скачать фильм Ночной патруль через торрент бесплантно в хорошем качестве Описание:Детектив о работниках советской милиции. После того, как бухгалтер обнаружил в оформлении документов неточность - махинации зам. ... 10 10 2
Info! Золотая раздача, скачанное не засчитывается.
Торрент: Зарегистрирован [2017-04-15 08:54] · скачан: 5 раз
Статус: √ проверено
Размер: 1.09 GB
Как cкачать? Как скачать Ночной патруль через торрент | qTorrent

% Раздел Тема Автор DL S | L
Кино СССР [ 1.46 GB ] Ночной патруль [1957 СССР SATRip-AVC от AVP Studio] AVP Studio Скачать
1 | 0
Кино СССР [ 744 MB ] Ночной патруль [1957 СССР SATRip от AVP Studio] AVP Studio Скачать
1 | 0
Порно фильмы с сюжетом [ 1.37 GB ] Ночной Патруль / Patrouille de Nuit [2014 Feature DVDRip Оригинал] Pir@tya2010 Скачать
1 | 0
Порно фильмы с сюжетом [ 1.43 GB ] Ночной Патруль / Patrouille de Nuit [2014 Feature Foreign Straight Pantyhose WEB-DL 576p] sheker187 Скачать
1 | 0


>> Регистрируемся здесь <<






Отзывы и комментарии о схеме читаем и пишем здесь: ---> Отзывы и комментарии о схеме

Новые благодарочки в телеграм довольных пользователей:
скриншот   скриншот   скриншот   скриншот   скриншот
    Дорогой пользователь! Огромная просьба, поблагодарите релизера, оцените раздачу и оставьте свои комментарий, если Вы скачали Ночной патруль через торрент бесплатно! Внесите свою лепту в развитие PiratBit!
    Комментировать посты могут только пользователи прошедшие не сложную регистрацию
    Показать сообщения:    

    Ночной патруль через торрент
    Скачать бесплатно Ночной патруль
    Ночной патруль скачать торрент
    Ночной патруль смотреть онлайн
    Cкачать фильм Ночной патруль бесплатно
    Ночной патруль скачать торрент в хорошем качестве
    Ночной патруль смотреть онлайн бесплатно в хорошем качестве


    Вы не можете начинать темы
    Вы не можете отвечать на сообщения
    Вы не можете редактировать свои сообщения
    Вы не можете удалять свои сообщения
    Вы не можете голосовать в опросах
    Вы не можете прикреплять файлы к сообщениям
    Вы можете скачивать файлы