Ссылка на приватное зеркало нашего сайта всего за 1$. Внимание количество ограничено!!!

2 сезон

iTunes

1 сезон

1

iTunes

iTunes

iTunes

1 сезон

RePack

30

ИГРА 18+

pack

ВАЖНО

!!Акция!!

Alien_RageХит недели

RePack

MK11
pack

Забери бонус

RePack

jed

!!Акция!!

Alien_Rage

RePack

fifa19

RePack

Assassins Creed: Odyssey

RePack

NEED FOR SPEED™ PAYBACK

4 сезон

9 сезон

Бесстыжие 9 сезон

Все сериалы

все сериалы на PB.wtf

RePack

FAR CRY 5
  

К-9: Собачья работа / K-9 (Род Дэниэл) [1989 г., боевик, комедия, криминал, BDRip 720p от BLUEBIRD] [MVO, 2xDVO, 2xAVO] pb.wtf

К-9: Собачья работа через торрент pb.wtf

Размер: 9.97 GB | Добавлен: 3 года 6 мес. назад | Торрент скачан:64 раза
Скачать  

15-04-2017 17:46 К-9: Собачья работа Скачать торрент  

К-9: Собачья работа / K-9
Год выпуска: 1989
Страна: США
Жанр: боевик, комедия, криминал
Продолжительность: 01:41:23
Перевод: Профессиональный многоголосый, двухголосый, авторский одноголосый
Субтитры: Русские, английские

Режиссер: Род Дэниэл

rating

В ролях: Джеймс Белуши, Мэл Харрис, Кевин Тай, Джеймс Хэнди, Эд О'Нейлл, Коттер Смит, Прюитт Тейлор Винс, Шерман Хоуард, Джефф Эллин, Дэвид Хэскелл, Алан Блуменфелд, Уильям Сэдлер, Джерри Ливайн, Рик Чичетти, Дэн Кастелланета, Уэнделл Мелдрум, Джон Кастелланос, Коллин Моррис, Дж.В. Смит, Дин Хилл, Гари Комбс, Люси Батлер, Ральф Елиас

Описание: Веселый полицейский-выдумщик Майкл Дули попал в беду: его пытается убить известный наркодилер за то, что тот все время вмешивается в бизнес. Друг полицейского дает ему собаку по имени Джерри Ли, специально натасканную на запах наркотиков. С помощью пса Майкл надеется поймать преступника и разоблачить его, но не так все просто. У Джерри Ли свой характер и он работает только когда пожелает. К тому же собака принимает радостное участие в поломке машины Майкла, разгроме дома и его личной жизни...

Качество: BDRip 720p
Формат: MKV
Видео кодек: H.264
Аудио кодек: AC3
Видео: AVC, 1280x694 (1,85:1), 11.8 Mbps, 24,000 fps, 0,556 bpp
Аудио#1: 48 kHz, AC3, 2.0, 192 Kbps - Русский профессиональный многоголосый (ОРТ)
Аудио#2: 48 kHz, AC3, 2.0, 192 Kbps - Русский профессиональный двухголосый (Премьер видео)
Аудио#3: 48 kHz, AC3, 2.0, 192 Kbps - Русский профессиональный двухголосый (НТВ)
Аудио#4: 48 kHz, AC3, 2.0, 224 Kbps - Русский авторский одноголосый (А. Гаврилов, ранний)
Аудио#5: 48 kHz, AC3, 2.0, 192 Kbps - Русский авторский одноголосый (А. Гаврилов, поздний)
Аудио#6: 48 kHz, AC3, 2.0, 192 Kbps - Русский авторский одноголосый (В. Горчаков)
Аудио#7: 48 kHz, AC3, 2.0, 192 Kbps - Украинский профессиональный многоголосый (1+1)
Аудио#8: 48 kHz, AC3, 2.0, 192 Kbps - Украинский профессиональный многоголосый (НЛО ТВ)
Аудио#9: 48 kHz, FLAC, 2.0, 665 Kbps - Английский, оригинал

Релиз от:

x264 [info]: frame I:1924 Avg QP:17.42 size:115463
x264 [info]: frame P:34882 Avg QP:18.24 size: 89014
x264 [info]: frame B:109042 Avg QP:21.36 size: 52035

Формат : Matroska
Версия формата : Version 4 / Version 2
Размер файла : 9,97 Гбайт
Продолжительность : 1 ч. 41 м.
Режим общего битрейта : Переменный
Общий поток : 14,1 Мбит/сек
Название фильма : K-9.1989.x264.BDRip.720p.BLUEBIRD
Дата кодирования : UTC 2017-04-15 10:02:47
Программа кодирования : mkvmerge v7.9.0 ('Birds') 32bit
Библиотека кодирования : libebml v1.3.1 + libmatroska v1.4.2

Видео
Идентификатор : 1
Формат : AVC
Формат/Информация : Advanced Video Codec
Профиль формата : High@L4.1
Параметр CABAC формата : Да
Параметр ReFrames формата : 9 кадров
Идентификатор кодека : V_MPEG4/ISO/AVC
Продолжительность : 1 ч. 41 м.
Битрейт : 11,8 Мбит/сек
Ширина : 1280 пикселей
Высота : 694 пикселя
Соотношение сторон : 1,85:1
Режим частоты кадров : Постоянный
Частота кадров : 23,976 (24000/1001) кадра/сек
Цветовое пространство : YUV
Субдискретизация насыщенности : 4:2:0
Битовая глубина : 8 бит
Тип развёртки : Прогрессивная
Бит/(Пиксели*Кадры) : 0.556
Размер потока : 8,38 Гбайт (84%)
Заголовок : K-9.1989.x264.BDRip.720p.BLUEBIRD
Библиотека кодирования : x264 core 148 r2762+56 6284cf3 t_mod_Custom [8-bit@all X86]
Настройки программы : cabac=1 / ref=9 / deblock=1:-3:-3 / analyse=0x3:0x133 / me=umh / subme=10 / psy=1 / fade_compensate=0.00 / psy_rd=0.88:0.19 / mixed_ref=1 / me_range=32 / chroma_me=1 / trellis=2 / 8x8dct=1 / cqm=0 / deadzone=21,11 / fast_pskip=0 / chroma_qp_offset=-3 / threads=12 / lookahead_threads=1 / sliced_threads=0 / nr=0 / decimate=0 / interlaced=0 / bluray_compat=0 / constrained_intra=0 / fgo=0 / bframes=10 / b_pyramid=2 / b_adapt=1 / b_bias=0 / direct=3 / weightb=1 / open_gop=0 / weightp=2 / keyint=240 / keyint_min=23 / scenecut=40 / intra_refresh=0 / rc_lookahead=80 / rc=crf / mbtree=0 / crf=18.5000 / qcomp=0.80 / qpmin=0:0:0 / qpmax=69:69:69 / qpstep=4 / vbv_maxrate=62500 / vbv_bufsize=78125 / crf_max=0.0 / nal_hrd=none / filler=0 / ip_ratio=1.40 / pb_ratio=1.30 / aq=1:0.75 / aq-sensitivity=10.00 / aq-factor=1.00:1.00:1.00 / aq2=0 / aq3=0
Язык : English
Default : Да
Forced : Нет

Аудио #1
Идентификатор : 2
Формат : AC-3
Формат/Информация : Audio Coding 3
Параметр Endianness формата : Big
Идентификатор кодека : A_AC3
Продолжительность : 1 ч. 41 м.
Вид битрейта : Постоянный
Битрейт : 192 Кбит/сек
Каналы : 2 канала
Расположение каналов : Front: L R
Частота : 48,0 КГц
Частота кадров : 31,250 кадров/сек (1536 spf)
Битовая глубина : 16 бит
Метод сжатия : С потерями
Размер потока : 139 Мбайт (1%)
Заголовок : Профессиональный многоголосый (ОРТ)
Язык : Russian
ServiceKind/String : Complete Main
Default : Да
Forced : Нет

Аудио #2
Идентификатор : 3
Формат : AC-3
Формат/Информация : Audio Coding 3
Параметр Endianness формата : Big
Идентификатор кодека : A_AC3
Продолжительность : 1 ч. 41 м.
Вид битрейта : Постоянный
Битрейт : 192 Кбит/сек
Каналы : 2 канала
Расположение каналов : Front: L R
Частота : 48,0 КГц
Частота кадров : 31,250 кадров/сек (1536 spf)
Битовая глубина : 16 бит
Метод сжатия : С потерями
Размер потока : 139 Мбайт (1%)
Заголовок : Профессиональный двухголосый (Премьер видео)
Язык : Russian
ServiceKind/String : Complete Main
Default : Нет
Forced : Нет

Аудио #3
Идентификатор : 4
Формат : AC-3
Формат/Информация : Audio Coding 3
Параметр Endianness формата : Big
Идентификатор кодека : A_AC3
Продолжительность : 1 ч. 41 м.
Вид битрейта : Постоянный
Битрейт : 192 Кбит/сек
Каналы : 2 канала
Расположение каналов : Front: L R
Частота : 48,0 КГц
Частота кадров : 31,250 кадров/сек (1536 spf)
Битовая глубина : 16 бит
Метод сжатия : С потерями
Размер потока : 139 Мбайт (1%)
Заголовок : Профессиональный двухголосый (НТВ)
Язык : Russian
ServiceKind/String : Complete Main
Default : Нет
Forced : Нет

Аудио #4
Идентификатор : 5
Формат : AC-3
Формат/Информация : Audio Coding 3
Режим : Dolby Digital
Параметр Endianness формата : Big
Идентификатор кодека : A_AC3
Продолжительность : 1 ч. 41 м.
Вид битрейта : Постоянный
Битрейт : 224 Кбит/сек
Каналы : 2 канала
Расположение каналов : Front: L R
Частота : 48,0 КГц
Частота кадров : 31,250 кадров/сек (1536 spf)
Битовая глубина : 16 бит
Метод сжатия : С потерями
Размер потока : 162 Мбайт (2%)
Заголовок : Авторский одноголосый (А. Гаврилов, ранний)
Язык : Russian
ServiceKind/String : Complete Main
Default : Нет
Forced : Нет

Аудио #5
Идентификатор : 6
Формат : AC-3
Формат/Информация : Audio Coding 3
Параметр Endianness формата : Big
Идентификатор кодека : A_AC3
Продолжительность : 1 ч. 41 м.
Вид битрейта : Постоянный
Битрейт : 192 Кбит/сек
Каналы : 2 канала
Расположение каналов : Front: L R
Частота : 48,0 КГц
Частота кадров : 31,250 кадров/сек (1536 spf)
Битовая глубина : 16 бит
Метод сжатия : С потерями
Размер потока : 139 Мбайт (1%)
Заголовок : Авторский одноголосый (А. Гаврилов, поздний)
Язык : Russian
ServiceKind/String : Complete Main
Default : Нет
Forced : Нет

Аудио #6
Идентификатор : 7
Формат : AC-3
Формат/Информация : Audio Coding 3
Параметр Endianness формата : Big
Идентификатор кодека : A_AC3
Продолжительность : 1 ч. 41 м.
Вид битрейта : Постоянный
Битрейт : 192 Кбит/сек
Каналы : 2 канала
Расположение каналов : Front: L R
Частота : 48,0 КГц
Частота кадров : 31,250 кадров/сек (1536 spf)
Битовая глубина : 16 бит
Метод сжатия : С потерями
Размер потока : 139 Мбайт (1%)
Заголовок : Авторский одноголосый (В. Горчаков)
Язык : Russian
ServiceKind/String : Complete Main
Default : Нет
Forced : Нет

Аудио #7
Идентификатор : 8
Формат : AC-3
Формат/Информация : Audio Coding 3
Параметр Endianness формата : Big
Идентификатор кодека : A_AC3
Продолжительность : 1 ч. 41 м.
Вид битрейта : Постоянный
Битрейт : 192 Кбит/сек
Каналы : 2 канала
Расположение каналов : Front: L R
Частота : 48,0 КГц
Частота кадров : 31,250 кадров/сек (1536 spf)
Битовая глубина : 16 бит
Метод сжатия : С потерями
Размер потока : 139 Мбайт (1%)
Заголовок : Профессиональный многоголосый (1+1)
Язык : Ukrainian
ServiceKind/String : Complete Main
Default : Нет
Forced : Нет

Аудио #8
Идентификатор : 9
Формат : AC-3
Формат/Информация : Audio Coding 3
Параметр Endianness формата : Big
Идентификатор кодека : A_AC3
Продолжительность : 1 ч. 41 м.
Вид битрейта : Постоянный
Битрейт : 192 Кбит/сек
Каналы : 2 канала
Расположение каналов : Front: L R
Частота : 48,0 КГц
Частота кадров : 31,250 кадров/сек (1536 spf)
Битовая глубина : 16 бит
Метод сжатия : С потерями
Размер потока : 139 Мбайт (1%)
Заголовок : Профессиональный многоголосый (НЛО ТВ)
Язык : Ukrainian
ServiceKind/String : Complete Main
Default : Нет
Forced : Нет

Аудио #9
Идентификатор : 10
Формат : FLAC
Формат/Информация : Free Lossless Audio Codec
Идентификатор кодека : A_FLAC
Продолжительность : 1 ч. 41 м.
Вид битрейта : Переменный
Битрейт : 665 Кбит/сек
Каналы : 2 канала
Расположение каналов : Front: L R
Частота : 48,0 КГц
Частота кадров : 11,719 кадров/сек (4096 spf)
Битовая глубина : 16 бит
Размер потока : 482 Мбайт (5%)
Библиотека кодирования : libFLAC 1.2.1 (UTC 2007-09-17)
Язык : English
Default : Нет
Forced : Нет

Текст #1
Идентификатор : 11
Формат : UTF-8
Идентификатор кодека : S_TEXT/UTF8
Идентификатор кодека/Информация : UTF-8 Plain Text
Продолжительность : 1 ч. 35 м.
Битрейт : 108 бит/сек
ElementCount : 1119
Размер потока : 76,2 Кбайт (0%)
Заголовок : full
Язык : Russian
Default : Нет
Forced : Нет

Текст #2
Идентификатор : 12
Формат : UTF-8
Идентификатор кодека : S_TEXT/UTF8
Идентификатор кодека/Информация : UTF-8 Plain Text
Продолжительность : 1 ч. 34 м.
Битрейт : 67 бит/сек
ElementCount : 1133
Размер потока : 46,4 Кбайт (0%)
Заголовок : full
Язык : English
Default : Нет
Forced : Нет

Меню
00:00:00.000 : :Chapter 01
00:06:53.913 : :Chapter 02
00:18:54.174 : :Chapter 03
00:26:21.454 : :Chapter 04
00:34:50.505 : :Chapter 05
00:44:19.490 : :Chapter 06
00:50:07.587 : :Chapter 07
01:02:22.780 : :Chapter 08
01:09:37.298 : :Chapter 09
01:16:01.098 : :Chapter 10
01:25:19.614 : :Chapter 11
01:36:31.327 : :Chapter 12

pb.wtf



Скачать К-9: Собачья работа через торрент http://pic1.kartinco.top/images/11/6y62a.jpg Скачать фильм К-9: Собачья работа через торрент бесплантно в хорошем качестве Описание: Веселый полицейский-выдумщик Майкл Дули попал в беду: его пытается убить известный наркодилер за то, что тот все время ... 9.8 10 9
Info! Серебряная раздача, засчитывается только 50% скачанного.
Торрент: Зарегистрирован [2017-04-15 17:46] · скачан: 64 раз
Статус: √ проверено
Размер: 9.97 GB
Как cкачать? Как скачать К-9: Собачья работа через торрент | qTorrent

% Раздел Тема Автор DL S | L
Фильмы [HD 720p, 1080p] (Хороший звук DUB, MVO) [ 12.61 GB ] К-9. Собачья работа / K-9 [1989 BDRip 1080p by msltel] MVO 2 x DVO 2 x AVO VO msltel Скачать
1 | 0
Фильмы [HD 720p, 1080p] (Хороший звук DUB, MVO) [ 5.7 GB ] К-9. Собачья работа / K-9 [1989 BDRip 720p by msltel] MVO 2 x DVO 2 x AVO VO msltel Скачать
1 | 0
Фильмы до 2000 г. [ 1.6 GB ] К-9: Собачья работа / K-9 [1989 WEB-DLRip] [AVO] + [DVO] killermax2013 Скачать
1 | 0
Сборники на DVD и Сиквелы [DVDrip, WEB-DLRip, HDrip, BDRip] [ 4.31 GB ] Трилогия: К-9 - Собачья работа / K-9 / К-911 - Собачья работа 2 / K-911 / К-9 III: Частные ы / K-9: P.I. [1989 1999 2002 г DVDRip-AVC] DVO -=Cherry=- Скачать
1 | 0
Фильмы до 2000 г. [ 1.37 GB ] К-9: Собачья работа / K-9 [1989 ... DVDRip] chaga2009 Скачать
1 | 0

28-11-2019 20:33  

Отключить всю рекламу на сайте

16-04-2017 18:48 К-9: Собачья работа Скачать торрент  

Шикарнейший фильм. Автору релиза Спасибоpb.wtf



    Дорогой пользователь! Огромная просьба, поблагодарите релизера, оцените раздачу и оставьте свои комментарий, если Вы скачали К-9: Собачья работа через торрент бесплатно! Внесите свою лепту в развитие PiratBit!
    Комментировать посты могут только пользователи прошедшие не сложную регистрацию
    Показать сообщения:    

    К-9: Собачья работа через торрент
    Скачать бесплатно К-9: Собачья работа
    К-9: Собачья работа скачать торрент
    К-9: Собачья работа смотреть онлайн
    Cкачать фильм К-9: Собачья работа бесплатно
    К-9: Собачья работа скачать торрент в хорошем качестве
    К-9: Собачья работа смотреть онлайн бесплатно в хорошем качестве


    Вы не можете начинать темы
    Вы не можете отвечать на сообщения
    Вы не можете редактировать свои сообщения
    Вы не можете удалять свои сообщения
    Вы не можете голосовать в опросах
    Вы не можете прикреплять файлы к сообщениям
    Вы можете скачивать файлы