Ссылка на приватное зеркало нашего сайта всего за 1$. Внимание количество ограничено!!!

2 сезон

iTunes

1 сезон

1

iTunes

iTunes

iTunes

1 сезон

RePack

30

ИГРА 18+

pack

ВАЖНО

!!Акция!!

Alien_RageХит недели

RePack

MK11
pack

Забери бонус

RePack

jed

!!Акция!!

Alien_Rage

RePack

fifa19

RePack

Assassins Creed: Odyssey

RePack

NEED FOR SPEED™ PAYBACK

4 сезон

9 сезон

Бесстыжие 9 сезон

Все сериалы

все сериалы на PB.wtf

RePack

FAR CRY 5
  

Мертв на 99% / 1-10 серии из 10 (Степан Коршунов) [2017, драма, боевик, детектив, криминал, HDTVRip] pb.wtf

Мертв на 99% через торрент pb.wtf

Размер: 5.86 GB | Добавлен: 3 года 6 мес. назад | Торрент скачан:221 раз
Скачать  

15-04-2017 21:07 Мертв на 99% Скачать торрент  

Мертв на 99%
(1-10 серии из 10)
Год выпуска: 2017
Страна: Россия
Жанр: драма, боевик, детектив, криминал
Всего серий: 10
Продолжительность: 10 х ~ 00:48:00
Субтитры: отсутствуют

Режиссер: Степан Коршунов



В ролях:

Алексей Чадов, Анна Старшенбаум, Олег Тактаров, Константин Адаев, Олег Мазуров, Борис Хвошнянский, Александр Наумов, Анна Попова, Максим Митяшин, Евгения Храповицкая, Александра Чичкова, Сабина Ахмедова, Олег Морозов, Вероника Тимофеева, Галина Звягинцева, Анна Бачалова, Максим Амельченко

Описание:

Артём умеет красиво зарабатывать деньги и легко с ними расставаться. Его жизнь напоминает сказку: дорогие спорткары, роскошные лофты, элитные рестораны и девушка-модель... Идиллия заканчивается, когда Артёма принимают за опасного преступника по кличке Змей. За Змеем охотятся и Интерпол, и агент ФСБ Хромов, и обманутые им торговцы оружием из Албании. У полковника Хромова есть сомнения, кто же на самом деле этот Змей? Может преступник присвоил внешность Артова и занял его место успешного архитектора? Чтобы вернуть себе имя и отстоять право на жизнь, Артёму предстоит выживать в огромном городе без денег, машины и документов.

Качество: HDTVRip
Формат: AVI
Видео кодек: XviD
Аудио кодек: AC3

Видео: 720x304 (2.37:1), 25 fps, XviD build 50 ~1571 kbps avg, 0.287 bit/pixel
Аудио#1: 48 kHz, AC3 Dolby Digital, 2/0 (L,R) ch, ~192.00 kbps avg
скриншот   скриншот   скриншот   скриншот  

Общее
Полное имя : D:\Mertvyy.na.99.2016.HDTVRip.Files-x\01.Mertvyy.na.99.2016.HDTVRip.Files-x.avi
Формат : AVI
Формат/Информация : Audio Video Interleave
Размер файла : 601 Мбайт
Продолжительность : 47 м. 22 с.
Общий поток : 1773 Кбит/сек
Программа кодирования : VirtualDubMod 1.5.10.3 | www.virtualdub-fr.org || (build 2550/release)
Библиотека кодирования : VirtualDubMod build 2550/release

Видео
Идентификатор : 0
Формат : MPEG-4 Visual
Профиль формата : Advanced Simple@L5
Параметр BVOP формата : 1
Параметр QPel формата : Нет
Параметр GMC формата : Без точки перехода
Параметр матрицы формата : Выборочная
Идентификатор кодека : XVID
Идентификатор кодека/Подсказка : XviD
Продолжительность : 47 м. 22 с.
Битрейт : 1571 Кбит/сек
Ширина : 720 пикселей
Высота : 304 пикселя
Соотношение сторон : 2,35:1
Частота кадров : 25,000 кадров/сек
Цветовое пространство : YUV
Субдискретизация насыщенности : 4:2:0
Битовая глубина : 8 бит
Тип развёртки : Прогрессивная
Метод сжатия : С потерями
Бит/(Пиксели*Кадры) : 0.287
Размер потока : 532 Мбайт (89%)
Библиотека кодирования : XviD 73

Аудио
Идентификатор : 1
Формат : AC-3
Формат/Информация : Audio Coding 3
Расширение режима : CM (complete main)
Параметр Endianness формата : Big
Идентификатор кодека : 2000
Продолжительность : 47 м. 22 с.
Вид битрейта : Постоянный
Битрейт : 192 Кбит/сек
Каналы : 2 канала
Расположение каналов : Front: L R
Частота : 48,0 КГц
Частота кадров : 31,250 кадров/сек (1536 spf)
Метод сжатия : С потерями
Размер потока : 65,1 Мбайт (11%)
Выравнивание : Разделение по промежуткам
Продолжительность промежутка : 40 мс. (1,00 видеокадр)
Время предзагрузки промежутка : 500 мс.

pb.wtf



Скачать Мертв на 99% через торрент http://i90.fastpic.ru/big/2017/0410/1a/ec3013d8ce3befd26f2a696e1b4bb91a.jpg Скачать фильм Мертв на 99% через торрент бесплантно в хорошем качестве Описание: Артём умеет красиво зарабатывать деньги и легко с ними расставаться. Его жизнь напоминает сказку: дорогие спорткары, роскошные ... 10 10 7
Торрент: Зарегистрирован [2017-04-15 21:07] · скачан: 221 раз
Статус: √ проверено
Размер: 5.86 GB
Как cкачать? Как скачать Мертв на 99% через торрент | qTorrent

% Раздел Тема Автор DL S | L
Наши сериалы [ 5.03 GB ] Мёртв на 99% / Сезон: 1 / Серии: 1-10 из 10 [2017 Россия HDTVRip-AVC от sokol_ok] sokol_ok Скачать
2 | 0
Наши сериалы [ 6.52 GB ] Мертв на 99 процентов / Серия 1-10 из 10 [2017 SATRip] oleg8 Скачать
1 | 0

28-11-2019 20:33  

Отключить всю рекламу на сайте

    Дорогой пользователь! Огромная просьба, поблагодарите релизера, оцените раздачу и оставьте свои комментарий, если Вы скачали Мертв на 99% через торрент бесплатно! Внесите свою лепту в развитие PiratBit!
    Комментировать посты могут только пользователи прошедшие не сложную регистрацию
    Показать сообщения:    

    Мертв на 99% через торрент
    Скачать бесплатно Мертв на 99%
    Мертв на 99% скачать торрент
    Мертв на 99% смотреть онлайн
    Cкачать фильм Мертв на 99% бесплатно
    Мертв на 99% скачать торрент в хорошем качестве
    Мертв на 99% смотреть онлайн бесплатно в хорошем качестве


    Вы не можете начинать темы
    Вы не можете отвечать на сообщения
    Вы не можете редактировать свои сообщения
    Вы не можете удалять свои сообщения
    Вы не можете голосовать в опросах
    Вы не можете прикреплять файлы к сообщениям
    Вы можете скачивать файлы