Ссылка на приватное зеркало нашего сайта всего за 1$. Внимание количество ограничено!!!

2 сезон

iTunes

1 сезон

1

iTunes

iTunes

iTunes

1 сезон

RePack

30

ИГРА 18+

pack

ВАЖНО

!!Акция!!

Alien_RageХит недели

RePack

MK11
pack

Забери бонус

RePack

jed

!!Акция!!

Alien_Rage

RePack

fifa19

RePack

Assassins Creed: Odyssey

RePack

NEED FOR SPEED™ PAYBACK

4 сезон

9 сезон

Бесстыжие 9 сезон

Все сериалы

все сериалы на PB.wtf

RePack

FAR CRY 5
  

Пир Бабетты / Babettes gæstebud (Габриэль Аксель)[1987, драма, комедия, музыка, BDRip 1080p by msltel] MVO pb.wtf

Пир Бабетты через торрент pb.wtf

Размер: 13.37 GB | Добавлен: 3 года 6 мес. назад | Торрент скачан:2 раза
Скачать  

16-04-2017 06:39 Пир Бабетты Скачать торрент  

Название: Пир Бабетты
Оригинальное название: Babettes gæstebud
Год выпуска: 1987
Страна: Дания
Жанр: драма, комедия, музыка
Продолжительность: 01:43:09
Перевод: профессиональный многоголосый

Режиссёр: Габриэль Аксель

В ролях: Стефани Одран, Биргитте Федерспиль, Бодиль Кьер, Ярл Кулле, Жан-Филипп Лафон, Аста Эспер Хаген Андерсен, Биби Андерссон, Томас Антони, Герт Бастиан, Вигго Бенцон, Вибеке Хаструп, Пуэль Керн, Ларс Ломанн, Лизабет Мовин, Хольгер Перфорт, Бендт Роте, Пребен Лердорф Рай, Аксель Стребюэ, Эбба Вит

Описание: В семью только что скончавшегося Лоренца Лёвенхьельма, который воспитал в истово протестантском духе двух своих дочерей Мартину и Филиппу, приезжает из Франции в качестве домоправительницы женщина по имени Бабетта. На самом-то деле, она была вынуждена бросить всё и сбежать из Парижа, охваченного революцией 1871 года, захватив с собой только лотерейный билет, который ежегодно проверял её друг, пока не сообщил через 14 лет, что Бабетта выиграла солидную сумму — 10 тысяч франков. Решив вернуться на родину, Бабетта захотела на прощание отблагодарить сестёр за их добросердечность и великодушие... Фильм снят по мотивам повести Карен Бликсен «Пир Бабетты» (Babettes gaestebud, 1950).



Качество: BDRip 1080p
Формат: MKV
Видео: MPEG-4 AVC, 18.2 Mбит/с, 1920x1080, 24 кадр/с
Аудио 1: русский, AC3, 192 kbps, 2 ch, 48 kHz [профессиональный многоголосый]
Аудио 2: датский, AC3, 192 kbps, 2 ch, 48 kHz [оригинал]
Субтитры: английские
Имеются неименованные главы/чаптеры.
Общее
Уникальный идентификатор : 181967926017429148762014639005813750362 (0x88E5BF6D6DC510A19FDD27E9CE8CBA5A)
Полное имя : D:\Video\Пир Бабетты.1987.BDRip.1080p by msltel.mkv
Формат : Matroska
Версия формата : Version 4 / Version 2
Размер файла : 13,4 Гбайт
Продолжительность : 1 ч. 43 м.
Общий поток : 18,6 Мбит/сек
Название фильма : Rip by msltel
Дата кодирования : UTC 2017-04-15 12:34:02
Программа кодирования : mkvmerge v8.2.0 ('World of Adventure') 64bit
Библиотека кодирования : libebml v1.3.1 + libmatroska v1.4.2

Видео
Идентификатор : 1
Формат : AVC
Формат/Информация : Advanced Video Codec
Профиль формата : High@L4.1
Параметр CABAC формата : Да
Параметр ReFrames формата : 4 кадра
Идентификатор кодека : V_MPEG4/ISO/AVC
Продолжительность : 1 ч. 43 м.
Битрейт : 18,2 Мбит/сек
Ширина : 1920 пикселей
Высота : 1080 пикселей
Соотношение сторон : 16:9
Режим частоты кадров : Постоянный
Частота кадров : 24,000 кадра/сек
Цветовое пространство : YUV
Субдискретизация насыщенности : 4:2:0
Битовая глубина : 8 бит
Тип развёртки : Прогрессивная
Бит/(Пиксели*Кадры) : 0.365
Размер потока : 13,1 Гбайт (98%)
Библиотека кодирования : x264 core 146 r2538 121396c
Настройки программы : cabac=1 / ref=4 / deblock=1:-3:-2 / analyse=0x3:0x113 / me=umh / subme=11 / psy=1 / psy_rd=1.00:0.15 / mixed_ref=1 / me_range=32 / chroma_me=1 / trellis=2 / 8x8dct=1 / cqm=0 / deadzone=21,11 / fast_pskip=0 / chroma_qp_offset=-3 / threads=6 / lookahead_threads=1 / sliced_threads=0 / nr=0 / decimate=1 / interlaced=0 / bluray_compat=0 / constrained_intra=0 / bframes=13 / b_pyramid=2 / b_adapt=2 / b_bias=0 / direct=1 / weightb=1 / open_gop=0 / weightp=2 / keyint=230 / keyint_min=23 / scenecut=40 / intra_refresh=0 / rc_lookahead=40 / rc=crf / mbtree=0 / crf=20.8 / qcomp=0.60 / qpmin=0 / qpmax=69 / qpstep=4 / vbv_maxrate=62500 / vbv_bufsize=78125 / crf_max=0.0 / nal_hrd=none / filler=0 / ip_ratio=1.40 / pb_ratio=1.30 / aq=1:1.00
Язык : Danish
Default : Да
Forced : Нет

Аудио #1
Идентификатор : 2
Формат : AC-3
Формат/Информация : Audio Coding 3
Режим : Dolby Digital
Параметр Endianness формата : Big
Идентификатор кодека : A_AC3
Продолжительность : 1 ч. 43 м.
Вид битрейта : Постоянный
Битрейт : 192 Кбит/сек
Каналы : 2 канала
Расположение каналов : Front: L R
Частота : 48,0 КГц
Частота кадров : 31,250 кадров/сек (1536 spf)
Битовая глубина : 16 бит
Метод сжатия : С потерями
Размер потока : 142 Мбайт (1%)
Заголовок : MVO
Язык : Russian
ServiceKind/String : Complete Main
Default : Да
Forced : Нет

Аудио #2
Идентификатор : 3
Формат : AC-3
Формат/Информация : Audio Coding 3
Параметр Endianness формата : Big
Идентификатор кодека : A_AC3
Продолжительность : 1 ч. 43 м.
Вид битрейта : Постоянный
Битрейт : 192 Кбит/сек
Каналы : 2 канала
Расположение каналов : Front: L R
Частота : 48,0 КГц
Частота кадров : 31,250 кадров/сек (1536 spf)
Битовая глубина : 16 бит
Метод сжатия : С потерями
Размер потока : 142 Мбайт (1%)
Заголовок : original
Язык : Danish
ServiceKind/String : Complete Main
Default : Нет
Forced : Нет

Текст
Идентификатор : 4
Формат : UTF-8
Идентификатор кодека : S_TEXT/UTF8
Идентификатор кодека/Информация : UTF-8 Plain Text
Продолжительность : 1 ч. 40 м.
Битрейт : 33 бит/сек
ElementCount : 737
Размер потока : 24,5 Кбайт (0%)
Заголовок : английские
Язык : English
Default : Нет
Forced : Нет

Меню
00:00:00.000 : :Chapter 01
00:09:11.333 : :Chapter 02
00:17:39.583 : :Chapter 03
00:27:19.000 : :Chapter 04
00:36:00.708 : :Chapter 05
00:43:50.791 : :Chapter 06
00:51:21.583 : :Chapter 07
00:59:34.791 : :Chapter 08
01:07:25.083 : :Chapter 09
01:16:11.416 : :Chapter 10
01:25:15.332 : :Chapter 11
01:34:31.916 : :Chapter 12
pb.wtf



Скачать Пир Бабетты через торрент http://hostpic.gq/img/2017-04/14/u3hazskg3pv101suyifd7egsy.png Скачать фильм Пир Бабетты через торрент бесплантно в хорошем качестве Описание: В семью только что скончавшегося Лоренца Лёвенхьельма, который воспитал в истово протестантском духе двух своих дочерей Мартину и ... 5 10 1
Info! Золотая раздача, скачанное не засчитывается.
Торрент: Зарегистрирован [2017-04-16 06:39] · скачан: 2 раз
Статус: √ проверено
Размер: 13.37 GB
Как cкачать? Как скачать Пир Бабетты через торрент | qTorrent

% Раздел Тема Автор DL S | L
Фильмы [HD 720p, 1080p] (Хороший звук DUB, MVO) [ 5.31 GB ] Пир Бабетты / Babettes gæstebud [1987 музыка BDRip 720p by msltel] MVO msltel Скачать
1 | 0

28-11-2019 20:33  

Отключить всю рекламу на сайте

    Дорогой пользователь! Огромная просьба, поблагодарите релизера, оцените раздачу и оставьте свои комментарий, если Вы скачали Пир Бабетты через торрент бесплатно! Внесите свою лепту в развитие PiratBit!
    Комментировать посты могут только пользователи прошедшие не сложную регистрацию
    Показать сообщения:    

    Пир Бабетты через торрент
    Скачать бесплатно Пир Бабетты
    Пир Бабетты скачать торрент
    Пир Бабетты смотреть онлайн
    Cкачать фильм Пир Бабетты бесплатно
    Пир Бабетты скачать торрент в хорошем качестве
    Пир Бабетты смотреть онлайн бесплатно в хорошем качестве


    Вы не можете начинать темы
    Вы не можете отвечать на сообщения
    Вы не можете редактировать свои сообщения
    Вы не можете удалять свои сообщения
    Вы не можете голосовать в опросах
    Вы не можете прикреплять файлы к сообщениям
    Вы можете скачивать файлы