Ссылка на приватное зеркало нашего сайта всего за 1$. Внимание количество ограничено!!!

2 сезон

iTunes

1 сезон

1

iTunes

iTunes

iTunes

1 сезон

RePack

30

ИГРА 18+

pack

ВАЖНО

!!Акция!!

Alien_RageХит недели

RePack

MK11
pack

Забери бонус

RePack

jed

!!Акция!!

Alien_Rage

RePack

fifa19

RePack

Assassins Creed: Odyssey

RePack

NEED FOR SPEED™ PAYBACK

4 сезон

9 сезон

Бесстыжие 9 сезон

Все сериалы

все сериалы на PB.wtf

RePack

FAR CRY 5
  

Зверопой / Sing (Гарт Дженнингс, Кристоф Лурдель) [2016 г., Мультфильм, комедия, семейный, BDRip, Дубляж] pb.wtf

Зверопой через торрент pb.wtf

Размер: 745 MB | Добавлен: 3 года 6 мес. назад | Торрент скачан:220 раз
Скачать  

16-04-2017 07:03 Зверопой Скачать торрент  

Зверопой / Sing
Год выпуска: 2016
Страна: США
Жанр: Мультфильм, комедия, семейный
Продолжительность: 01:47:53
Перевод: Дубляж
Субтитры: нет

Режиссер: Гарт Дженнингс, Кристоф Лурдель

rating

В ролях: Мэттью МакКонахи, Риз Уизерспун, Сет МакФарлейн, Скарлетт Йоханссон, Джон Си Райли, Тэрон Эджертон, Тори Келли, Дженнифер Сондерс, Дженнифер Хадсон, Гарт Дженнингс

Описание: В мире, который населяют звери, коала по имени Бастер Мун изо всех сил пытается предотвратить закрытие своего театра. В итоге Бастер и его друг, баран Эдди, устраивают конкурс певцов, предлагая принять участие каждому жителю города.

Качество: BDRip
Формат: AVI
Видео кодек: XviD
Аудио кодек: MP3
Видео: XviD, 624x336, 23.976 fps, 836 kbps
Аудио#1: MP3, 2 ch, 128 kbps ,48.0 KHz



General
Complete name : H:\релизы.торрентфайл\Sing.2016.BDRip.745MB.D.MegaPeer.avi
Format : AVI
Format/Info : Audio Video Interleave
File size : 745 MiB
Duration : 1h 47mn
Overall bit rate : 966 Kbps

Video
ID : 0
Format : MPEG-4 Visual
Format profile : Advanced Simple@L5
Format settings, BVOP : 1
Format settings, QPel : No
Format settings, GMC : No warppoints
Format settings, Matrix : Custom
Codec ID : XVID
Codec ID/Hint : XviD
Duration : 1h 47mn
Bit rate : 832 Kbps
Width : 624 pixels
Height : 336 pixels
Display aspect ratio : 1.85:1
Frame rate : 23.976 fps
Color space : YUV
Chroma subsampling : 4:2:0
Bit depth : 8 bits
Scan type : Progressive
Compression mode : Lossy
Bits/(Pixel*Frame) : 0.165
Stream size : 642 MiB (86%)
Writing library : XviD 73

Audio
ID : 1
Format : MPEG Audio
Format version : Version 1
Format profile : Layer 3
Mode : Joint stereo
Codec ID : 55
Codec ID/Hint : MP3
Duration : 1h 47mn
Bit rate mode : Constant
Bit rate : 128 Kbps
Channel(s) : 2 channels
Sampling rate : 48.0 KHz
Compression mode : Lossy
Stream size : 98.8 MiB (13%)
Alignment : Aligned on interleaves
Interleave, duration : 167 ms (4.00 video frames)
Interleave, preload duration : 216 ms
Title : DVD
Writing library : LAME3.99r
Encoding settings : -m j -V 4 -q 2 -lowpass 17 -b 128

pb.wtf



Скачать Зверопой через торрент http://i91.fastpic.ru/big/2017/0408/b0/49d813bceac0d8f2da84c804b5bb62b0.jpg Скачать фильм Зверопой через торрент бесплантно в хорошем качестве Описание: В мире, который населяют звери, коала по имени Бастер Мун изо всех сил пытается предотвратить закрытие своего театра. В итоге ... 10 10 4
Торрент: Зарегистрирован [2017-04-16 07:03] · скачан: 220 раз
Статус: √ проверено
Размер: 745 MB
Как cкачать? Как скачать Зверопой через торрент | qTorrent

% Раздел Тема Автор DL S | L
Ultra HD (UHD: 2K, 4K, 8K) [ 42.38 GB ] Зверопой / Sing [2016 Мультфильм музыкальный UHD BDRemux 2160p] DUB [] bober100 Скачать
1 | 0
Зарубежные Мультфильмы (BDRip 1080p, 720p, Blu-ray, BD-Remux) [ 26.69 GB ] Зверопой / Sing [2016 Мультфильм музыкальный BD Remux 1080p] DUB [] bober100 Скачать
1 | 0
Иностранные мультфильмы [ 2.18 GB ] Зверопой / Sing [2016 мультфильм музыка HDRip "BD CEE" ] coc900 Скачать
1 | 0
Зарубежные Мультфильмы (BDRip 1080p, 720p, Blu-ray, BD-Remux) [ 10.46 GB ] Зверопой / Sing [2016 Мультфильм музыкальный BDRip 1080p] DUB [] bober100 Скачать
1 | 0
Иностранные мультфильмы [ 2.34 GB ] Зверопой / Sing [2016 мультфильм музыка BDRip-AVC] - [ Blu-Ray] - ExKinoRay Enigma2010 Скачать
1 | 0
3D Мультфильмы [ 6.74 GB ] Зверопой в 3D / Sing in 3D [2016 Мультфильм Музыка BDRip 1080p ] Анаглиф slaventi-69 Скачать
1 | 0
Иностранные мультфильмы [ 1.46 GB ] Зверопой / Sing [2016 мультфильм музыка BDRip] - [] Twi7ter Скачать
3 | 0

28-11-2019 20:33  

Отключить всю рекламу на сайте

    Дорогой пользователь! Огромная просьба, поблагодарите релизера, оцените раздачу и оставьте свои комментарий, если Вы скачали Зверопой через торрент бесплатно! Внесите свою лепту в развитие PiratBit!
    Комментировать посты могут только пользователи прошедшие не сложную регистрацию
    Показать сообщения:    

    Зверопой через торрент
    Скачать бесплатно Зверопой
    Зверопой скачать торрент
    Зверопой смотреть онлайн
    Cкачать фильм Зверопой бесплатно
    Зверопой скачать торрент в хорошем качестве
    Зверопой смотреть онлайн бесплатно в хорошем качестве


    Вы не можете начинать темы
    Вы не можете отвечать на сообщения
    Вы не можете редактировать свои сообщения
    Вы не можете удалять свои сообщения
    Вы не можете голосовать в опросах
    Вы не можете прикреплять файлы к сообщениям
    Вы можете скачивать файлы