Ссылка на приватное зеркало всего за 1$. Внимание количество ограничено!!!

OK

1+1

iTunes

мы

OK

1

WEB-DLRip

Джокер

Пифагор

Ведьмак / The Witcher сериал

Лицензия

ПШазам

ОК

Оно 2

iTunes

30
pack

Вам бонус

ВАЖНО

!!Акция!!

Alien_RageХит недели

RePack

Resident Evil 21

ИГРА 18+

pack

RePack

jed

!!Акция!!

Alien_Rage

RePack

fifa19

RePack

Assassins Creed: Odyssey

RePack

NEED FOR SPEED™ PAYBACK

4 сезон

9 сезон

Бесстыжие 9 сезон

Все сериалы

все сериалы на PB.wtf

RePack

FAR CRY 5
  

Зверопой / Sing (Christophe Lourdelet, Гарт Дженнингс) [2016, мультфильм, комедия, семейный, BDRip-AVC от R.G.Resident] Дубляж - [Лицензия] pb.wtf

Зверопой через торрент pb.wtf

Раздают: 1 [ 0 KB/s ]
Размер: 2.88 GB | Добавлен: 2 года 9 мес. назад | Торрент скачан:872 раза
Скачать  

16-04-2017 07:29 Зверопой Скачать торрент  

Зверопой / Sing
««Auditions begin 2016»»

Год выпуска: 2016
Страна: США
Жанр: мультфильм, комедия, семейный, музыка
Продолжительность: 01:47:53
Перевод: Дубляж - [Лицензия] R5
Субтитры: русские (full), английские (full), английские (SDH)
Режиссер: Christophe Lourdelet, Гарт Дженнингс
В ролях:

Мэттью МакКонахи (Buster Moon, озвучка), Риз Уизерспун (Rosita, озвучка), Сет МакФарлейн (Mike, озвучка), Скарлетт Йоханссон (Ash, озвучка), Джон Си Райли (Eddie, озвучка), Тэрон Эджертон (Johnny, озвучка), Тори Келли (Meena, озвучка), Дженнифер Сондерс (Nana, озвучка), Дженнифер Хадсон (Young Nana, озвучка), Гарт Дженнингс (Miss Crawly / дополнительные голоса, озвучка), Питер Серафинович (Big Daddy, озвучка), Ник Кролл (Gunter, озвучка)
Описание:
В мире, который населяют звери, коала по имени Бастер Мун изо всех сил пытается предотвратить закрытие своего театра. В итоге Бастер и его друг, баран Эдди, устраивают конкурс певцов, предлагая принять участие каждому жителю города.
Мировая премьера: 11 сентября 2016

MPAA: PG - Рекомендуется присутствие родителей
Качество: BDRip-AVC Rip by
Формат: MKV
Видео: AVC, 1024x552 (1.85:1), 2990 kbps, 23,976 fps, 0,221 bpp
Аудио №1: русский / AC3 / 5.1 / 48 kHz / 384 kbps /
Аудио №2: английский / AC3 / 5.1 / 48 kHz / 448 kbps /
General
Unique ID : 228780987636362926910197793608691857541 (0xAC1D9D90111D564484C36AC84F23B885)
Complete name : D:\download\Sing.2016.BDRip-AVC by schultz R.G.Resident.mkv
Format : Matroska
Format version : Version 4 / Version 2
File size : 2.88 GiB
Duration : 1 h 47 min
Overall bit rate : 3 824 kb/s
Encoded date : UTC 2017-04-16 06:52:47
Writing application : mkvmerge v8.9.0 ('Father Daughter') 64bit
Writing library : libebml v1.3.3 + libmatroska v1.4.4

Video
ID : 1
Format : AVC
Format/Info : Advanced Video Codec
Format profile : High@L4.1
Format settings, CABAC : Yes
Format settings, ReFrames : 12 frames
Codec ID : V_MPEG4/ISO/AVC
Duration : 1 h 47 min
Bit rate : 2 990 kb/s
Width : 1 024 pixels
Height : 552 pixels
Display aspect ratio : 1.85:1
Frame rate mode : Constant
Frame rate : 23.976 (23976/1000) FPS
Color space : YUV
Chroma subsampling : 4:2:0
Bit depth : 8 bits
Scan type : Progressive
Bits/(Pixel*Frame) : 0.221
Stream size : 2.25 GiB (78%)
Writing library : x264 core 146 r2538 121396c
Encoding settings : cabac=1 / ref=12 / deblock=1:-3:-3 / analyse=0x3:0x113 / me=umh / subme=11 / psy=1 / psy_rd=1.00:0.00 / mixed_ref=1 / me_range=48 / chroma_me=1 / trellis=2 / 8x8dct=1 / cqm=0 / deadzone=21,11 / fast_pskip=0 / chroma_qp_offset=-2 / threads=12 / lookahead_threads=3 / sliced_threads=0 / nr=0 / decimate=0 / interlaced=0 / bluray_compat=0 / constrained_intra=0 / bframes=11 / b_pyramid=2 / b_adapt=2 / b_bias=0 / direct=3 / weightb=1 / open_gop=0 / weightp=2 / keyint=240 / keyint_min=23 / scenecut=40 / intra_refresh=0 / rc_lookahead=40 / rc=2pass / mbtree=1 / bitrate=2990 / ratetol=1.0 / qcomp=0.60 / qpmin=0 / qpmax=69 / qpstep=4 / cplxblur=20.0 / qblur=0.5 / vbv_maxrate=50000 / vbv_bufsize=62500 / nal_hrd=none / filler=0 / ip_ratio=1.40 / aq=1:1.00
Language : English
Default : Yes
Forced : No

Audio #1
ID : 2
Format : AC-3
Format/Info : Audio Coding 3
Mode extension : CM (complete main)
Format settings, Endianness : Big
Codec ID : A_AC3
Duration : 1 h 47 min
Bit rate mode : Constant
Bit rate : 384 kb/s
Channel(s) : 6 channels
Channel positions : Front: L C R, Side: L R, LFE
Sampling rate : 48.0 kHz
Frame rate : 31.250 FPS (1536 spf)
Compression mode : Lossy
Stream size : 296 MiB (10%)
Language : Russian
Default : Yes
Forced : No

Audio #2
ID : 3
Format : AC-3
Format/Info : Audio Coding 3
Mode extension : CM (complete main)
Format settings, Endianness : Big
Codec ID : A_AC3
Duration : 1 h 47 min
Bit rate mode : Constant
Bit rate : 448 kb/s
Channel(s) : 6 channels
Channel positions : Front: L C R, Side: L R, LFE
Sampling rate : 48.0 kHz
Frame rate : 31.250 FPS (1536 spf)
Compression mode : Lossy
Stream size : 346 MiB (12%)
Language : English
Default : No
Forced : No

Text #1
ID : 4
Format : UTF-8
Codec ID : S_TEXT/UTF8
Codec ID/Info : UTF-8 Plain Text
Duration : 1 h 39 min
Bit rate : 90 b/s
Count of elements : 1378
Stream size : 65.6 KiB (0%)
Title : full
Language : Russian
Default : No
Forced : No

Text #2
ID : 5
Format : UTF-8
Codec ID : S_TEXT/UTF8
Codec ID/Info : UTF-8 Plain Text
Duration : 1 h 39 min
Bit rate : 90 b/s
Count of elements : 1378
Stream size : 65.6 KiB (0%)
Title : full
Language : English
Default : No
Forced : No

Text #3
ID : 6
Format : UTF-8
Codec ID : S_TEXT/UTF8
Codec ID/Info : UTF-8 Plain Text
Duration : 1 h 39 min
Bit rate : 69 b/s
Count of elements : 1733
Stream size : 50.6 KiB (0%)
Title : SDH
Language : English
Default : No
Forced : No

Menu
00:00:00.000 : en:00:00:00.000
00:04:29.352 : en:00:04:29.352
00:10:36.469 : en:00:10:36.469
00:14:04.677 : en:00:14:04.677
00:18:32.653 : en:00:18:32.653
00:25:14.722 : en:00:25:14.722
00:30:04.052 : en:00:30:04.052
00:35:11.776 : en:00:35:11.776
00:40:07.405 : en:00:40:07.405
00:44:36.132 : en:00:44:36.132
00:50:26.649 : en:00:50:26.649
00:55:36.208 : en:00:55:36.208
01:04:40.710 : en:01:04:40.710
01:14:03.981 : en:01:14:03.981
01:19:17.962 : en:01:19:17.962
01:23:59.159 : en:01:23:59.159
01:26:56.461 : en:01:26:56.461
01:30:38.266 : en:01:30:38.266
01:34:47.181 : en:01:34:47.181
01:40:16.010 : en:01:40:16.010

pb.wtf



Скачать Зверопой через торрент http://i77.fastpic.ru/big/2016/0417/a7/808a646271c761f7c7d87df3d366b3a7.png Скачать фильм Зверопой через торрент бесплантно в хорошем качестве Описание: В мире, который населяют звери, коала по имени Бастер Мун изо всех сил пытается предотвратить закрытие своего театра. В итоге ... 10 10 12
Info! Золотая раздача, скачанное не засчитывается.
Торрент: Зарегистрирован [2017-04-16 07:29] · скачан: 872 раз
Статус: √ проверено
Размер: 2.88 GB
Как cкачать? Как скачать Зверопой через торрент | qTorrent

% Раздел Тема Автор DL S | L
Ultra HD (UHD: 2K, 4K, 8K) [ 42.38 GB ] Зверопой / Sing [2016 Мультфильм музыкальный UHD BDRemux 2160p] DUB [] bober100 Скачать
1 | 0
Зарубежные Мультфильмы (BDRip 1080p, 720p, Blu-ray, BD-Remux) [ 26.69 GB ] Зверопой / Sing [2016 Мультфильм музыкальный BD Remux 1080p] DUB [] bober100 Скачать
1 | 0
Иностранные мультфильмы [ 2.18 GB ] Зверопой / Sing [2016 мультфильм музыка HDRip "BD CEE" ] coc900 Скачать
1 | 0
Зарубежные Мультфильмы (BDRip 1080p, 720p, Blu-ray, BD-Remux) [ 10.46 GB ] Зверопой / Sing [2016 Мультфильм музыкальный BDRip 1080p] DUB [] bober100 Скачать
1 | 0
Иностранные мультфильмы [ 2.34 GB ] Зверопой / Sing [2016 мультфильм музыка BDRip-AVC] - [ Blu-Ray] - ExKinoRay Enigma2010 Скачать
4 | 0
3D Мультфильмы [ 6.74 GB ] Зверопой в 3D / Sing in 3D [2016 Мультфильм Музыка BDRip 1080p ] Анаглиф slaventi-69 Скачать
1 | 0
Иностранные мультфильмы [ 1.46 GB ] Зверопой / Sing [2016 мультфильм музыка BDRip] - [] Twi7ter Скачать
9 | 0

28-11-2019 20:33  

Отключить всю рекламу на сайте

    Дорогой пользователь! Огромная просьба, поблагодарите релизера, оцените раздачу и оставьте свои комментарий, если Вы скачали Зверопой через торрент бесплатно! Внесите свою лепту в развитие PiratBit!
    Комментировать посты могут только пользователи прошедшие не сложную регистрацию
    Показать сообщения:    

    Зверопой через торрент
    Скачать бесплатно Зверопой
    Зверопой скачать торрент
    Зверопой смотреть онлайн
    Cкачать фильм Зверопой бесплатно
    Зверопой скачать торрент в хорошем качестве
    Зверопой смотреть онлайн бесплатно в хорошем качестве


    Вы не можете начинать темы
    Вы не можете отвечать на сообщения
    Вы не можете редактировать свои сообщения
    Вы не можете удалять свои сообщения
    Вы не можете голосовать в опросах
    Вы не можете прикреплять файлы к сообщениям
    Вы можете скачивать файлы