Всегда рабочее зеркало просто перед .vidak.icu напиши любое слово или цифру, Пример http://s06.vidak.icu

>

7.4

iTunes

7.4

2 сезон

9.4

1 сезон

1

7.4

2 сезон

7.2

iTunes

6.0

MVO

13

6.1

iTunes

8.3

Пиратка

30

ULTIMATE

pack

9.9

Лицензия

ВАЖНО

ИГРА 18+

pack

7.3

RePack

MK11

7.7

RePack

jed

7.8

RePack

fifa19

8.5

RePack

RDR2

RePack

NEED FOR SPEED™ PAYBACK

1 сезон

9 сезон

Бесстыжие 9 сезон

Все сериалы

все сериалы на PB.wtf

RePack

FAR CRY 5

Anonymous, доброй ночи, мы катастрофически не успеваем собрать деньги на оплату серверов, помогите нам пожалуйста 5,10,15р., для нас важна любая помощь . В качестве благодарности мы отключим Вам всю рекламу на сайте (укажите свой ник в строку Ваше имя)!

×
  
Magnet ссылка

Порки / Porky's (Боб Кларк) [1982, комедия, BDRip 720p by msltel] 2 x AVO pb.wtf

Порки через торрент pb.wtf

Размер: 5.5 GB | Добавлен: 4 года 9 мес. назад | Торрент скачан:14 раз
Смотреть онлайн Порки | Скачать    Ребята, помогите собрать деньги на оплату серверов!!!

16-04-2017 08:30 Порки Скачать торрент  

Название: Порки
Оригинальное название: Porky's
Год выпуска: 1982
Страна: Канада, США
Жанр: комедия
Продолжительность: 01:38:27
Перевод: авторский

Режиссёр: Боб Кларк

В ролях: Дэн Монахан, Марк Херриер, Уайатт Найт, Роджер Уилсон, Сирил О’Райлли, Тони Гэниос, Кэки Хантер, Ким Кэтролл, Нэнси Парсонс, Скотт Коломби

Описание: Флорида. 1954 год. Группа учащихся старшей школы, решают помочь своему другу потерять девственность. Для этого они едут в стрип-бар Порки, расположенный вне города из-за слуха, что в баре можно снять проститутку. Порки берёт деньги подростков и обещает им «незабываемую ночь», но унижает их и вышвыривает из бара. Тут же к бару подъезжает местный шериф, который оказывается тем ещё подонком и, по совместительству, братом Порки. Но Порки даже не представляет, что унизил не тех ребят, и их месть не заставит его долго ждать...



Качество: BDRip 720p
Формат: MKV
Видео: MPEG-4 AVC, 7420 Кбит/с, 1280x690, 23,976 кадра/с
Аудио 1: русский, AC3, 192 kbps, 2 ch, 48 kHz [авторский, Андрей Гаврилов]
Аудио 2: русский, AC3, 192 kbps, 2 ch, 48 kHz [авторский, Юрий Живов]
Аудио 3: английский, AC3, 192 kbps, 1 ch, 48 kHz [оригинал]
Субтитры 1: русские
Субтитры 2: английские (для слабослышащих)
Общее
Уникальный идентификатор : 218961865211599115866888328221981425582 (0xA4BA857331FC0990BF26605224503FAE)
Полное имя : D:\Video\Порки.1982.BDRip.720p by msltel.mkv
Формат : Matroska
Версия формата : Version 4 / Version 2
Размер файла : 5,50 Гбайт
Продолжительность : 1 ч. 38 м.
Общий поток : 7999 Кбит/сек
Название фильма : Rip by msltel
Дата кодирования : UTC 2017-04-16 05:33:35
Программа кодирования : mkvmerge v8.2.0 ('World of Adventure') 64bit
Библиотека кодирования : libebml v1.3.1 + libmatroska v1.4.2

Видео
Идентификатор : 1
Формат : AVC
Формат/Информация : Advanced Video Codec
Профиль формата : High@L4.1
Параметр CABAC формата : Да
Параметр ReFrames формата : 9 кадров
Идентификатор кодека : V_MPEG4/ISO/AVC
Продолжительность : 1 ч. 38 м.
Битрейт : 7420 Кбит/сек
Ширина : 1280 пикселей
Высота : 690 пикселей
Соотношение сторон : 1,85:1
Режим частоты кадров : Постоянный
Частота кадров : 23,976 (24000/1001) кадра/сек
Цветовое пространство : YUV
Субдискретизация насыщенности : 4:2:0
Битовая глубина : 8 бит
Тип развёртки : Прогрессивная
Бит/(Пиксели*Кадры) : 0.350
Размер потока : 5,10 Гбайт (93%)
Библиотека кодирования : x264 core 146 r2538 121396c
Настройки программы : cabac=1 / ref=9 / deblock=1:-3:-2 / analyse=0x3:0x113 / me=umh / subme=11 / psy=1 / psy_rd=1.00:0.15 / mixed_ref=1 / me_range=32 / chroma_me=1 / trellis=2 / 8x8dct=1 / cqm=0 / deadzone=21,11 / fast_pskip=0 / chroma_qp_offset=-3 / threads=6 / lookahead_threads=1 / sliced_threads=0 / nr=0 / decimate=1 / interlaced=0 / bluray_compat=0 / constrained_intra=0 / bframes=11 / b_pyramid=2 / b_adapt=2 / b_bias=0 / direct=1 / weightb=1 / open_gop=0 / weightp=2 / keyint=230 / keyint_min=23 / scenecut=40 / intra_refresh=0 / rc_lookahead=40 / rc=crf / mbtree=0 / crf=21.0 / qcomp=0.60 / qpmin=0 / qpmax=69 / qpstep=4 / vbv_maxrate=62500 / vbv_bufsize=78125 / crf_max=0.0 / nal_hrd=none / filler=0 / ip_ratio=1.40 / pb_ratio=1.30 / aq=1:1.00
Язык : English
Default : Да
Forced : Нет

Аудио #1
Идентификатор : 2
Формат : AC-3
Формат/Информация : Audio Coding 3
Параметр Endianness формата : Big
Идентификатор кодека : A_AC3
Продолжительность : 1 ч. 38 м.
Вид битрейта : Постоянный
Битрейт : 192 Кбит/сек
Каналы : 2 канала
Расположение каналов : Front: L R
Частота : 48,0 КГц
Частота кадров : 31,250 кадров/сек (1536 spf)
Битовая глубина : 16 бит
Метод сжатия : С потерями
Размер потока : 135 Мбайт (2%)
Заголовок : AVO (Андрей Гаврилов)
Язык : Russian
ServiceKind/String : Complete Main
Default : Да
Forced : Нет

Аудио #2
Идентификатор : 3
Формат : AC-3
Формат/Информация : Audio Coding 3
Параметр Endianness формата : Big
Идентификатор кодека : A_AC3
Продолжительность : 1 ч. 38 м.
Вид битрейта : Постоянный
Битрейт : 192 Кбит/сек
Каналы : 2 канала
Расположение каналов : Front: L R
Частота : 48,0 КГц
Частота кадров : 31,250 кадров/сек (1536 spf)
Битовая глубина : 16 бит
Метод сжатия : С потерями
Размер потока : 135 Мбайт (2%)
Заголовок : AVO (Юрий Живов)
Язык : Russian
ServiceKind/String : Complete Main
Default : Нет
Forced : Нет

Аудио #3
Идентификатор : 4
Формат : AC-3
Формат/Информация : Audio Coding 3
Параметр Endianness формата : Big
Идентификатор кодека : A_AC3
Продолжительность : 1 ч. 38 м.
Вид битрейта : Постоянный
Битрейт : 192 Кбит/сек
Каналы : 1 канал
Расположение каналов : Front: C
Частота : 48,0 КГц
Частота кадров : 31,250 кадров/сек (1536 spf)
Битовая глубина : 16 бит
Метод сжатия : С потерями
Размер потока : 135 Мбайт (2%)
Заголовок : original
Язык : English
ServiceKind/String : Complete Main
Default : Нет
Forced : Нет

Текст #1
Идентификатор : 5
Формат : UTF-8
Идентификатор кодека : S_TEXT/UTF8
Идентификатор кодека/Информация : UTF-8 Plain Text
Продолжительность : 1 ч. 37 м.
Битрейт : 74 бит/сек
ElementCount : 1167
Размер потока : 53,2 Кбайт (0%)
Заголовок : русские
Язык : Russian
Default : Нет
Forced : Нет

Текст #2
Идентификатор : 6
Формат : UTF-8
Идентификатор кодека : S_TEXT/UTF8
Идентификатор кодека/Информация : UTF-8 Plain Text
Продолжительность : 1 ч. 38 м.
Битрейт : 74 бит/сек
ElementCount : 1824
Размер потока : 53,8 Кбайт (0%)
Заголовок : английские (для слабослышащих)
Язык : English
Default : Нет
Forced : Нет
pb.wtf



Скачать Порки через торрент http://hostpic.gq/img/2017-04/16/oe34u2xidlw2aigznr2ezh913.png Скачать, смотреть онлайн Порки бесплантно в хорошем качестве Описание: Флорида. 1954 год. Группа учащихся старшей школы, решают помочь своему другу потерять девственность. Для этого они едут в ... 10 10 2
Info! Золотая раздача, скачанное не засчитывается.
Торрент: Зарегистрирован [2017-04-16 08:30] · скачан: 14 раз
Статус: √ проверено
Размер: 5.5 GB
Как cкачать? Как скачать Порки через торрент | UTorrent

28-11-2019 20:33  

Отключить всю рекламу на сайте

    Дорогой пользователь! Огромная просьба, поблагодарите релизера, оцените раздачу и оставьте свои комментарий, если Вы скачали Порки через торрент бесплатно!
    Комментировать посты могут только пользователи прошедшие не сложную регистрацию
    Показать сообщения:    

    Порки через торрент
    Скачать бесплатно Порки
    Порки скачать торрент
    Порки смотреть онлайн
    Cкачать фильм Порки бесплатно
    Порки скачать торрент в хорошем качестве
    Порки смотреть онлайн бесплатно в хорошем качестве


    Вы не можете начинать темы
    Вы не можете отвечать на сообщения
    Вы не можете редактировать свои сообщения
    Вы не можете удалять свои сообщения
    Вы не можете голосовать в опросах
    Вы не можете прикреплять файлы к сообщениям
    Вы можете скачивать файлы