Ссылка на приватное зеркало нашего сайта всего за 1$. Внимание количество ограничено!!!

2 сезон

iTunes

1 сезон

1

iTunes

iTunes

iTunes

1 сезон

RePack

30

ИГРА 18+

pack

ВАЖНО

!!Акция!!

Alien_RageХит недели

RePack

MK11
pack

Забери бонус

RePack

jed

!!Акция!!

Alien_Rage

RePack

fifa19

RePack

Assassins Creed: Odyssey

RePack

NEED FOR SPEED™ PAYBACK

4 сезон

9 сезон

Бесстыжие 9 сезон

Все сериалы

все сериалы на PB.wtf

RePack

FAR CRY 5
  

Морпех 5: Поле битвы / The Marine 5: Battleground (Джеймс Нанн) [2017 г., Боевик, BDRip (1080p), Профессиональный (многоголосый)(ЛИЦЕНЗИЯ BD CEE)] pb.wtf

Морпех 5: Поле битвы через торрент pb.wtf

Размер: 8.51 GB | Добавлен: 3 года 6 мес. назад | Торрент скачан:67 раз
Скачать  

16-04-2017 15:06 Морпех 5: Поле битвы Скачать торрент  

Морпех 5: Поле битвы / The Marine 5: Battleground
Год выпуска: 2017
Страна: США
Жанр: Боевик
Продолжительность: 01:31:38
Перевод: Профессиональный (многоголосый)(ЛИЦЕНЗИЯ! BD CEE)+ Оригинал
Субтитры: Русские, английские

Режиссер: Джеймс Нанн

В ролях: Мариз Уэлле Мизанин, Майк Мизанин, Анна Ван Хуфт, Тринити Фату, Сэнди Робсон, Нэйтан Митчелл, Брэд Келли, Хит Миллер, Тэйлор Ротунда, Джо Хенниг

Описание: Джейк Картер - бывший морской пехотинец. Он много лет служил в армии, и в ходе многочисленных спецопераций получил бесценный боевой опыт. Теперь Джейк работает в отделении скорой помощи, находящемся в его родном городке. Однажды главный герой отвечает на экстренный вызов, который приносит ему массу неприятностей. Теперь Джейк должен будет охранять важного подозреваемого, собирающегося дать свидетельские показания. За головой этого преступника начинается настоящая охота. Но Джейк на своём веку успел принять участие и не в таких заварушках. Сможет ли морской пехотинец защитить подозреваемого?

Качество: BDRip (1080p)
Формат: MKV
Видео кодек: AVC
Аудио кодек: AC3
Видео: MPEG-4 AVC, (1920x1080),12 000 Кбит/с, 23.976 кадра/сек
Аудио#1: AC3, 6 ch,640 kbps (Rus) 48.0 KHz Профессиональный (многоголосый)(ЛИЦЕНЗИЯ! BD CEE)
Аудио#2: AC3, 6 ch,640 kbps (Eng) 48.0 KHz оригинал
скриншот   скриншот   скриншот  

Тип потока: Видео
Длительность: 01:31:38
Кодек: AVC
Кодек/описание: Advanced Video Codec
Кодек/профиль: High@L4.1
Кодек/ID: V_MPEG4/ISO/AVC
Кодек/CABAC: Yes
Кодек/ReFrames: 4 frames
Размеры изображения: 1920 x 1080 (16:9)
Частота кадров: 23.976 fps
Частота кадров/тип: Constant
Размер потока: 7.52 GiB (88%)
Битрейт: 12.0 Mbps
Библиотека кодирования: x264 core 148 r2762M 90a61ec
Цветовое пространство: YUV
Тип развёртки: Progressive
Колориметрия: 4:2:0
Глубина: 8 bits
Настройки кодирования: cabac=1 / ref=4 / deblock=1:-3:-3 / analyse=0x3:0x113 / me=umh / subme=11 / psy=1 / psy_rd=1.05:0.10 / mixed_ref=1 / me_range=24 / chroma_me=1 / trellis=2 / 8x8dct=1 / cqm=0 / deadzone=21,11 / fast_pskip=0 / chroma_qp_offset=-3 / threads=5 / lookahead_threads=1 / sliced_threads=0 / nr=0 / decimate=1 / interlaced=0 / bluray_compat=0 / constrained_intra=0 / bframes=7 / b_pyramid=2 / b_adapt=2 / b_bias=0 / direct=1 / weightb=1 / open_gop=0 / weightp=2 / keyint=230 / keyint_min=23 / scenecut=40 / intra_refresh=0 / rc=2pass / mbtree=0 / bitrate=12000 / ratetol=1.0 / qcomp=0.70 / qpmin=3 / qpmax=69 / qpstep=4 / cplxblur=20.0 / qblur=0.5 / ip_ratio=1.40 / pb_ratio=1.30 / aq=2:1.00
:
Тип потока: Звук #1
Язык: Russian
Длительность: 01:31:38.527
Кодек: AC-3
Кодек/описание: Audio Coding 3
Кодек/ID: A_AC3
Частота дискретизации: 48.0 KHz
Каналов: 6 channels
Битрейт: 640 Kbps
Битрейт/тип: Constant
Размер потока: 420 MiB (5%)
Глубина: 16 bits
Метод сжатия: Lossy
:
Тип потока: Звук #2
Язык: English
Длительность: 01:31:38.527
Кодек: AC-3
Кодек/описание: Audio Coding 3
Кодек/ID: A_AC3
Частота дискретизации: 48.0 KHz
Каналов: 6 channels
Битрейт: 640 Kbps
Битрейт/тип: Constant
Размер потока: 420 MiB (5%)
Глубина: 16 bits
Метод сжатия: Lossy
:
Тип потока: Субтитры #1
Язык: Russian
Формат: PGS
Формат/подробно: The same subtitle format used on BDs/HD-DVDs
:
Тип потока: Субтитры #2
Язык: English
Формат: PGS
Формат/подробно: The same subtitle format used on BDs/HD-DVDs

pb.wtf



Скачать Морпех 5: Поле битвы через торрент http://pic1.kartinco.top/images/11/3cdvj.jpg Скачать фильм Морпех 5: Поле битвы через торрент бесплантно в хорошем качестве Описание: Джейк Картер - бывший морской пехотинец. Он много лет служил в армии, и в ходе многочисленных спецопераций получил бесценный ... 6.1 10 7
Info! Золотая раздача, скачанное не засчитывается.
Торрент: Зарегистрирован [2017-04-16 15:06] · скачан: 67 раз
Статус: √ проверено
Размер: 8.51 GB
Как cкачать? Как скачать Морпех 5: Поле битвы через торрент | qTorrent

% Раздел Тема Автор DL S | L
Фильмы 2017 [DVDrip, WEB-DLRip, HDrip] (DUB, MVO) [ 1.98 GB ] Морпех 5: Поле битвы / The Marine 5: Battleground [2017 HDRip-AVC] MVO [] от ExKinoRay Enigma2010 Скачать
1 | 0
Фильмы [HD 720p, 1080p] (Хороший звук DUB, MVO) [ 4.66 GB ] Морпех 5: Поле битвы / The Marine 5: Battleground [2017 BDRip ] Бумер Скачать
1 | 0
Фильмы 2017 [DVDrip, WEB-DLRip, HDrip] (DUB, MVO) [ 1.37 GB ] Морпех 5: Поле битвы / The Marine 5: Battleground [2017 HDRip] MVO [ BD CEE] bober100 Скачать
1 | 0
Фильмы 2017 [DVDrip, WEB-DLRip, HDrip] (DUB, MVO) [ 699 MB ] Морпех 5: Поле битвы / The Marine 5: Battleground [2017 HDRip] / [] Sherif Скачать
1 | 0

28-11-2019 20:33  

Отключить всю рекламу на сайте

    Дорогой пользователь! Огромная просьба, поблагодарите релизера, оцените раздачу и оставьте свои комментарий, если Вы скачали Морпех 5: Поле битвы через торрент бесплатно! Внесите свою лепту в развитие PiratBit!
    Комментировать посты могут только пользователи прошедшие не сложную регистрацию
    Показать сообщения:    

    Морпех 5: Поле битвы через торрент
    Скачать бесплатно Морпех 5: Поле битвы
    Морпех 5: Поле битвы скачать торрент
    Морпех 5: Поле битвы смотреть онлайн
    Cкачать фильм Морпех 5: Поле битвы бесплатно
    Морпех 5: Поле битвы скачать торрент в хорошем качестве
    Морпех 5: Поле битвы смотреть онлайн бесплатно в хорошем качестве


    Вы не можете начинать темы
    Вы не можете отвечать на сообщения
    Вы не можете редактировать свои сообщения
    Вы не можете удалять свои сообщения
    Вы не можете голосовать в опросах
    Вы не можете прикреплять файлы к сообщениям
    Вы можете скачивать файлы