Ссылка на приватное зеркало нашего сайта всего за 1$. Внимание количество ограничено!!!

2 сезон

iTunes

1 сезон

1

iTunes

iTunes

iTunes

1 сезон

RePack

30

ИГРА 18+

pack

ВАЖНО

!!Акция!!

Alien_RageХит недели

RePack

MK11
pack

Забери бонус

RePack

jed

!!Акция!!

Alien_Rage

RePack

fifa19

RePack

Assassins Creed: Odyssey

RePack

NEED FOR SPEED™ PAYBACK

4 сезон

9 сезон

Бесстыжие 9 сезон

Все сериалы

все сериалы на PB.wtf

RePack

FAR CRY 5
  

Зверопой / Sing (Кристоф Лурделе, Гарт Дженнингс) [2016 г., мультфильм, комедия, семейный, музыка, HDRip, Дубляж "BD CEE" ] pb.wtf

Зверопой через торрент pb.wtf

Размер: 2.18 GB | Добавлен: 3 года 4 мес. назад | Торрент скачан:179 раз
Скачать  

16-04-2017 18:34 Зверопой Скачать торрент  

Зверопой / Sing
Год выпуска: 2016
Страна: США / Dentsu, Fuji Television Network, Illumination Entertainment
Жанр: мультфильм, комедия, семейный, музыка
Продолжительность: 01:47:53
Перевод: Дубляж (BD CEE)
Субтитры: Русские форсированные - вшитые
Режиссер: Кристоф Лурделе, Гарт Дженнингс

rating

В ролях: Мэттью МакКонахи, Риз Уизерспун, Сет МакФарлейн, Скарлетт Йоханссон, Джон Си Райли, Тэрон Эджертон, Тори Келли, Дженнифер Сондерс, Дженнифер Хадсон, Гарт Дженнингс

Описание: В мире, который населяют звери, коала по имени Бастер Мун изо всех сил пытается предотвратить закрытие своего театра. В итоге Бастер и его друг, баран Эдди, устраивают конкурс певцов, предлагая принять участие каждому жителю города.

Качество: HDRip
Формат: AVI
Видео кодек: XviD
Аудио кодек: AC3
Видео: 720x384 (1.88:1), 23.976 fps, XviD build 50 ~2438 kbps avg, 0.37 bit/pixel
Аудио: 48 kHz, AC3 Dolby Digital, 3/2 (L,C,R,l,r) + LFE ch, ~448 kbps


Общее
Полное имя : F:\ФИЛЬМЫ\Зверопой.2016.D.HDRip.avi
Формат : AVI
Формат/Информация : Audio Video Interleave
Профиль формата : OpenDML
Размер файла : 2,18 Гбайт
Продолжительность : 1 ч. 47 м.
Общий поток : 2893 Кбит/сек
Программа кодирования : VirtualDubMod 1.5.10.3 | www.virtualdub-fr.org || (build 2550/release)
Библиотека кодирования : VirtualDubMod build 2550/release

Видео
Идентификатор : 0
Формат : MPEG-4 Visual
Профиль формата : Advanced Simple@L5
Параметр BVOP формата : 1
Параметр QPel формата : Нет
Параметр GMC формата : Без точки перехода
Параметр матрицы формата : Default (MPEG)
Идентификатор кодека : XVID
Идентификатор кодека/Подсказка : XviD
Продолжительность : 1 ч. 47 м.
Битрейт : 2433 Кбит/сек
Ширина : 720 пикселей
Высота : 384 пикселя
Соотношение сторон : 1,85:1
Частота кадров : 23,976 (24000/1001) кадра/сек
Цветовое пространство : YUV
Субдискретизация насыщенности : 4:2:0
Битовая глубина : 8 бит
Тип развёртки : Прогрессивная
Метод сжатия : С потерями
Бит/(Пиксели*Кадры) : 0.367
Размер потока : 1,83 Гбайт (84%)
Библиотека кодирования : XviD 1.2.1 (UTC 2008-12-04)

Аудио
Идентификатор : 1
Формат : AC-3
Формат/Информация : Audio Coding 3
Параметр Endianness формата : Big
Идентификатор кодека : 2000
Продолжительность : 1 ч. 47 м.
Вид битрейта : Постоянный
Битрейт : 448 Кбит/сек
Каналы : 6 каналов
Расположение каналов : Front: L C R, Side: L R, LFE
Частота : 48,0 КГц
Частота кадров : 31,250 кадров/сек (1536 spf)
Битовая глубина : 16 бит
Метод сжатия : С потерями
Размер потока : 346 Мбайт (15%)
Выравнивание : Разделение по промежуткам
Продолжительность промежутка : 42 мс. (1,00 видеокадр)
Время предзагрузки промежутка : 500 мс.
ServiceKind/String : Complete Main

pb.wtf



Скачать Зверопой через торрент http://pic1.kartinco.top/images/11/8txxe.jpg Скачать фильм Зверопой через торрент бесплантно в хорошем качестве Описание: В мире, который населяют звери, коала по имени Бастер Мун изо всех сил пытается предотвратить закрытие своего театра. В итоге ... 9.8 10 11
Торрент: Зарегистрирован [2017-05-28 18:02] · скачан: 179 раз
Статус: √ проверено
Размер: 2.18 GB
Как cкачать? Как скачать Зверопой через торрент | qTorrent

% Раздел Тема Автор DL S | L
Ultra HD (UHD: 2K, 4K, 8K) [ 42.38 GB ] Зверопой / Sing [2016 Мультфильм музыкальный UHD BDRemux 2160p] DUB [] bober100 Скачать
1 | 0
Зарубежные Мультфильмы (BDRip 1080p, 720p, Blu-ray, BD-Remux) [ 26.69 GB ] Зверопой / Sing [2016 Мультфильм музыкальный BD Remux 1080p] DUB [] bober100 Скачать
1 | 0
Зарубежные Мультфильмы (BDRip 1080p, 720p, Blu-ray, BD-Remux) [ 10.46 GB ] Зверопой / Sing [2016 Мультфильм музыкальный BDRip 1080p] DUB [] bober100 Скачать
1 | 0
Иностранные мультфильмы [ 2.34 GB ] Зверопой / Sing [2016 мультфильм музыка BDRip-AVC] - [ Blu-Ray] - ExKinoRay Enigma2010 Скачать
1 | 0
3D Мультфильмы [ 6.74 GB ] Зверопой в 3D / Sing in 3D [2016 Мультфильм Музыка BDRip 1080p ] Анаглиф slaventi-69 Скачать
1 | 0
Иностранные мультфильмы [ 1.46 GB ] Зверопой / Sing [2016 мультфильм музыка BDRip] - [] Twi7ter Скачать
2 | 0
Зарубежные Мультфильмы (BDRip 1080p, 720p, Blu-ray, BD-Remux) [ 8.33 GB ] Зверопой / Sing [2016 мультфильм музыка BDRip 1080p от BLUEBIRD] [Dub + Sub rus eng] Quadropedia Скачать
2 | 0

28-11-2019 20:33  

Отключить всю рекламу на сайте

28-05-2017 18:11 Зверопой Скачать торрент  

Релиз обновлен ! Замена Дубляж (Лицензия R5) на Дубляж (BD CEE) ! Просьба перекачать торрент файл !pb.wtf



    Дорогой пользователь! Огромная просьба, поблагодарите релизера, оцените раздачу и оставьте свои комментарий, если Вы скачали Зверопой через торрент бесплатно! Внесите свою лепту в развитие PiratBit!
    Комментировать посты могут только пользователи прошедшие не сложную регистрацию
    Показать сообщения:    

    Зверопой через торрент
    Скачать бесплатно Зверопой
    Зверопой скачать торрент
    Зверопой смотреть онлайн
    Cкачать фильм Зверопой бесплатно
    Зверопой скачать торрент в хорошем качестве
    Зверопой смотреть онлайн бесплатно в хорошем качестве


    Вы не можете начинать темы
    Вы не можете отвечать на сообщения
    Вы не можете редактировать свои сообщения
    Вы не можете удалять свои сообщения
    Вы не можете голосовать в опросах
    Вы не можете прикреплять файлы к сообщениям
    Вы можете скачивать файлы