2 сезон

iTunes

1 сезон

1

iTunes

iTunes

iTunes

1 сезон

RePack

30

ИГРА 18+

pack

ВАЖНО

!!Акция!!

Alien_RageХит недели

RePack

MK11
pack

Забери бонус

RePack

jed

!!Акция!!

Alien_Rage

RePack

fifa19

RePack

Assassins Creed: Odyssey

RePack

NEED FOR SPEED™ PAYBACK

4 сезон

9 сезон

Бесстыжие 9 сезон

Все сериалы

все сериалы на PB.wtf

RePack

FAR CRY 5
  

Мальчик на дельфине / Boy on a Dolphin (Жан Негулеско) [1957, драма, мелодрама, приключения, BDRip 1080p by msltel] MVO pb.wtf

Мальчик на дельфине через торрент pb.wtf

Размер: 12.93 GB | Добавлен: 3 года 6 мес. назад | Торрент скачан:5 раз
Скачать  

17-04-2017 06:24 Мальчик на дельфине Скачать торрент  

Название: Мальчик на дельфине
Оригинальное название: Boy on a Dolphin
Год выпуска: 1957
Страна: США
Жанр: драма, мелодрама, приключения
Продолжительность: 01:51:18
Перевод: профессиональный многоголосый

Режиссёр: Жан Негулеско

В ролях: Софи Лорен, Алан Лэдд, Клифтон Уэбб, Алекс Минотис, Хорхе Мистраль, Лоуренс Нэйсмит, Пьеро Гиагнони, Гертруда Флинн, Джордж А. Купер, Чарльз Фоусет

Описание: Прекрасный греческий остров Гидра. Красавица Федра зарабатывает на жизнь добыванием губок с морского дна. Однажды, ныряя, девушка натыкается на затонувший корабль и обнаруживает древнюю золотую статую мальчика, сидящего верхом на бронзовом дельфине. Понимая, что её находка может принести семье много денег, Федра отправляется в Афины. Там она знакомится с хитрым коллекционером Виктором Пармали и учёным Джимом Колдером. Оба горят желанием взглянуть на историческую ценность...



Качество: BDRip 1080p
Формат: MKV
Видео: MPEG-4 AVC, 14.9 Mбит/с, 1920х816, 23,976 кадра/с
Аудио 1: русский, AC3, 192 kbps, 2 ch, 48 kHz [профессиональный многоголосый]
Аудио 2: английский, DTS, 1509 kbps, 2 ch, 48 kHz [оригинал]
Общее
Уникальный идентификатор : 225656524319570609798283005236818694594 (0xA9C3DDA0B3419A8286B87EA6687F51C2)
Полное имя : D:\Video\Мальчик на дельфине.1957.BDRip.1080p by msltel.mkv
Формат : Matroska
Версия формата : Version 4 / Version 2
Размер файла : 12,9 Гбайт
Продолжительность : 1 ч. 51 м.
Общий поток : 16,6 Мбит/сек
Название фильма : Rip by msltel
Дата кодирования : UTC 2017-04-17 02:58:45
Программа кодирования : mkvmerge v8.2.0 ('World of Adventure') 64bit
Библиотека кодирования : libebml v1.3.1 + libmatroska v1.4.2

Видео
Идентификатор : 1
Формат : AVC
Формат/Информация : Advanced Video Codec
Профиль формата : High@L4.1
Параметр CABAC формата : Да
Параметр ReFrames формата : 4 кадра
Идентификатор кодека : V_MPEG4/ISO/AVC
Продолжительность : 1 ч. 51 м.
Битрейт : 14,9 Мбит/сек
Ширина : 1920 пикселей
Высота : 816 пикселей
Соотношение сторон : 2,35:1
Режим частоты кадров : Постоянный
Частота кадров : 23,976 (24000/1001) кадра/сек
Цветовое пространство : YUV
Субдискретизация насыщенности : 4:2:0
Битовая глубина : 8 бит
Тип развёртки : Прогрессивная
Бит/(Пиксели*Кадры) : 0.397
Размер потока : 11,6 Гбайт (90%)
Библиотека кодирования : x264 core 146 r2538 121396c
Настройки программы : cabac=1 / ref=4 / deblock=1:-3:-2 / analyse=0x3:0x113 / me=umh / subme=11 / psy=1 / psy_rd=1.00:0.15 / mixed_ref=1 / me_range=32 / chroma_me=1 / trellis=2 / 8x8dct=1 / cqm=0 / deadzone=21,11 / fast_pskip=0 / chroma_qp_offset=-3 / threads=6 / lookahead_threads=1 / sliced_threads=0 / nr=0 / decimate=1 / interlaced=0 / bluray_compat=0 / constrained_intra=0 / bframes=8 / b_pyramid=2 / b_adapt=2 / b_bias=0 / direct=1 / weightb=1 / open_gop=0 / weightp=2 / keyint=230 / keyint_min=23 / scenecut=40 / intra_refresh=0 / rc_lookahead=40 / rc=crf / mbtree=0 / crf=20.1 / qcomp=0.60 / qpmin=0 / qpmax=69 / qpstep=4 / vbv_maxrate=62500 / vbv_bufsize=78125 / crf_max=0.0 / nal_hrd=none / filler=0 / ip_ratio=1.40 / pb_ratio=1.30 / aq=1:1.00
Язык : English
Default : Да
Forced : Нет

Аудио #1
Идентификатор : 2
Формат : AC-3
Формат/Информация : Audio Coding 3
Параметр Endianness формата : Big
Идентификатор кодека : A_AC3
Продолжительность : 1 ч. 51 м.
Вид битрейта : Постоянный
Битрейт : 192 Кбит/сек
Каналы : 2 канала
Расположение каналов : Front: L R
Частота : 48,0 КГц
Частота кадров : 31,250 кадров/сек (1536 spf)
Битовая глубина : 16 бит
Метод сжатия : С потерями
Размер потока : 153 Мбайт (1%)
Заголовок : MVO
Язык : Russian
ServiceKind/String : Complete Main
Default : Да
Forced : Нет

Аудио #2
Идентификатор : 3
Формат : DTS
Формат/Информация : Digital Theater Systems
Режим : 16
Параметр Endianness формата : Big
Идентификатор кодека : A_DTS
Продолжительность : 1 ч. 51 м.
Вид битрейта : Постоянный
Битрейт : 1509 Кбит/сек
Каналы : 2 канала
Расположение каналов : Front: L R
Частота : 48,0 КГц
Частота кадров : 93,750 кадра/сек (512 spf)
Битовая глубина : 16 бит
Метод сжатия : С потерями
Размер потока : 1,17 Гбайт (9%)
Заголовок : original
Язык : English
Default : Нет
Forced : Нет
pb.wtf



Скачать Мальчик на дельфине через торрент http://hostpic.gq/img/2017-04/16/xk7kq5gwiv04p4l7v9hu30m8b.jpg Скачать фильм Мальчик на дельфине через торрент бесплантно в хорошем качестве Описание: Прекрасный греческий остров Гидра. Красавица Федра зарабатывает на жизнь добыванием губок с морского дна. Однажды, ныряя, девушка ... 10 10 1
Info! Золотая раздача, скачанное не засчитывается.
Торрент: Зарегистрирован [2017-04-17 06:24] · скачан: 5 раз
Статус: √ проверено
Размер: 12.93 GB
Как cкачать? Как скачать Мальчик на дельфине через торрент | qTorrent

% Раздел Тема Автор DL S | L
Фильмы до 2000 г. [ 1.45 GB ] Мальчик на дельфине / Boy on a Dolphin [1957 г BDRip] MVO koenig Скачать
1 | 0
Фильмы [HD 720p, 1080p] (Хороший звук DUB, MVO) [ 3.79 GB ] Мальчик на дельфине / Boy on a Dolphin [1957 BDRip 720p by msltel] MVO msltel Скачать
1 | 0

28-11-2019 20:33  

Отключить всю рекламу на сайте

    Дорогой пользователь! Огромная просьба, поблагодарите релизера, оцените раздачу и оставьте свои комментарий, если Вы скачали Мальчик на дельфине через торрент бесплатно! Внесите свою лепту в развитие PiratBit!
    Комментировать посты могут только пользователи прошедшие не сложную регистрацию
    Показать сообщения:    

    Мальчик на дельфине через торрент
    Скачать бесплатно Мальчик на дельфине
    Мальчик на дельфине скачать торрент
    Мальчик на дельфине смотреть онлайн
    Cкачать фильм Мальчик на дельфине бесплатно
    Мальчик на дельфине скачать торрент в хорошем качестве
    Мальчик на дельфине смотреть онлайн бесплатно в хорошем качестве


    Вы не можете начинать темы
    Вы не можете отвечать на сообщения
    Вы не можете редактировать свои сообщения
    Вы не можете удалять свои сообщения
    Вы не можете голосовать в опросах
    Вы не можете прикреплять файлы к сообщениям
    Вы можете скачивать файлы