Ссылка на приватное зеркало нашего сайта всего за 1$. Внимание количество ограничено!!!

2 сезон

iTunes

1 сезон

1

iTunes

iTunes

iTunes

1 сезон

RePack

30

ИГРА 18+

pack

ВАЖНО

!!Акция!!

Alien_RageХит недели

RePack

MK11
pack

Забери бонус

RePack

jed

!!Акция!!

Alien_Rage

RePack

fifa19

RePack

Assassins Creed: Odyssey

RePack

NEED FOR SPEED™ PAYBACK

4 сезон

9 сезон

Бесстыжие 9 сезон

Все сериалы

все сериалы на PB.wtf

RePack

FAR CRY 5
  

Мент в законе (9 сезон: 1-44 серии из 44) (Игорь Ромащенко, Николай Денисов (II), Давид Ройтберг) [2015 г., Остросюжетный, детектив, криминал, HDTVRip Оригинал] pb.wtf

Мент в законе через торрент pb.wtf

Размер: 23.64 GB | Добавлен: 3 года 6 мес. назад | Торрент скачан:32 раза
Скачать  

17-04-2017 11:14 Мент в законе Скачать торрент  

Мент в законе (9 сезон)
Год выпуска: 2015
Страна: Россия
Жанр: Остросюжетный, детектив, криминал
Продолжительность: 44 x ~ 00:42:00
Перевод:Оригинал
Субтитры: Нет

Режиссер: Игорь Ромащенко, Николай Денисов (II), Давид Ройтберг

В ролях: Сергей Плотников (II), Михаил Бабичев, Антон Сёмкин, Сергей Пиотровский, Ирина Темичева, Ника Балина, Павел Савчук, Иван Литвинов, Василий Мичков, Андрей Рогожин, Дмитрий Косенкин, Дмитрий Артаев, Игорь Серебряный, Юлия Яблонская, Константин Глушков, Дмитрий Блохин, Иван Соловьёв, Дмитрий Варшавский (II), Александр Сухинин, Станислав Эвентов, Мария Портнова, Михаил Филиппов, Евгений Булдаков, Александра Панкратова, Александра Булычёва, Владимир Чуприков, Анастасия Дубровина, Эльмира Мирэль, Семён Литвинов, Иван Иванов, Денис Дружинин, Федор Румянцев, Марина Барсукова, Никита Тезов

Описание: Несмотря на все старания Степана Кручи и его верных боевых товарищей преступность в Битово не хочет уступать свои позиции. Покой Степану только снится. Подполковнику предстоит столкнуться с доселе невиданными в "его районе" преступлениями и старыми заклятыми врагами. В Битовском районе переполох - все местные газеты и телевиденье кричат о благородном разбойнике, Робин Гуде местного разлива. "Герой" специализируется на убийстве и грабеже бизнесменов, чьи имена запятнаны грязными делишками. Похищенные у бизнесменов деньги и ценности он раздает на благотворительные нужды. Но Степан Круча повидал уже многое, чтобы поверить в эту сказку. Стараниями Кручи "благородный разбойник" показывает свое истинное лицо: его благородные цели - лишь прикрытие. Предстоит подполковнику свести счеты и с бандой автомошенников, перешедших последнюю черту закона - убито несколько владельцев машин. Да и заклятый враг Кручи - Сафон тоже не сидит сложа руки. Вызволив сына из тюрьмы, Сафон помогает Егору открыть свой бизнес. Только бизнес этот они ведут не по законам рынка, а по бандитским понятиям. Но на каждую силу находится еще большая сила и новоявленный бизнесмен напрямую столкнется с "акулами" этого рынка, захватившими ключевые позиции еще в 90-х. Тем самым он подставит под удар не только себя, но и отца. Дел у Кручи и его команды оперативников много - одной жизни не хватит, чтобы все их разгрести. Рвение Степана вызывает насмешки окружающих и скепсис Ольги. Но Круча докажет, что это не личные счеты к Сафрону, не попытка отыграться за погибшую любимую женщину и не идея фикс, а самая настоящая борьба с преступностью.

Качество: HDTVRip
Формат: AVI
Видео кодек: XviD
Аудио кодек: AC3
Видео: MPEG-4 XviD, (720x400),1600 Кбит/с, 25.000 кадра/сек
Аудио#1: AC3, 2 ch,192 kbps (Rus) 48.0 KHz Оригинал
скриншот   скриншот   скриншот  

Тип потока: Видео
Длительность: 00:41:29
Кодек: MPEG-4 Visual
Кодек/профиль: Advanced Simple@L5
Кодек/ID: XVID
Размеры изображения: 720 x 400 (16:9)
Частота кадров: 25.000 fps
Размер потока: 495 MiB (89%)
Битрейт: 1 669 Kbps
Метод сжатия: Lossy
Библиотека кодирования: XviD 73
Цветовое пространство: YUV
Тип развёртки: Progressive
Колориметрия: 4:2:0
Глубина: 8 bits
:
Тип потока: Звук #1
Длительность: 00:41:29.320
Кодек: AC-3
Кодек/описание: Audio Coding 3
Кодек/ID: 2000
Частота дискретизации: 48.0 KHz
Каналов: 2 channels
Битрейт: 192 Kbps
Битрейт/тип: Constant
Размер потока: 57.0 MiB (10%)
Глубина: 16 bits
Метод сжатия: Lossy

pb.wtf



Скачать Мент в законе через торрент http://pic1.kartinco.top/images/11/4yodc.jpg Скачать фильм Мент в законе через торрент бесплантно в хорошем качестве Описание: Несмотря на все старания Степана Кручи и его верных боевых товарищей преступность в Битово не хочет уступать свои позиции. Покой ... 10 10 2
Info! Золотая раздача, скачанное не засчитывается.
Торрент: Зарегистрирован [2017-04-27 09:35] · скачан: 32 раз
Статус: √ проверено
Размер: 23.64 GB
Как cкачать? Как скачать Мент в законе через торрент | qTorrent

% Раздел Тема Автор DL S | L
Discovery [ 621 MB ] Discovery: Марихуана в законе / Discovery: Weed Wars [2012 Документальный познавательный расследование SATRip ] schultz Скачать
1 | 0
Документальные фильмы и телепередачи [ 562 MB ] Русские сенсации - Исповедь вора в законе [2012 Документальный SATRip Оригинал] кэп Скачать
1 | 0
Документальные фильмы и телепередачи [ 2 GB ] Воры в законе. XX-XXI век [2007 документальный DVDRip Оригинал] кэп Скачать
1 | 0
Документальные фильмы и телепередачи [ 487 MB ] Спецрасследование. Воры в законе [2010 Документальный истика SATRip] ss72ua Скачать
1 | 0
Наши сериалы [ 12.55 GB ] Мент в законе [2014 Остросюжетный SATRip] Бумер Скачать
1 | 0
Наши сериалы [ 16 GB ] Мент в законе [2014 Остросюжетный SATRip] Оригинал Бумер Скачать
1 | 0
Политика, религия [ 61 MB ] Бандеровцы в законе [2014 документальный WEBRip Оригинал] metanoia Скачать
1 | 0


Последний раз редактировалось: Бумер (2017-04-18 05:12), всего редактировалось 3 раз(а)

28-11-2019 20:33  

Отключить всю рекламу на сайте

17-04-2017 12:05 Мент в законе Скачать торрент  

сериал супер советую
5000 тысяч очков золотоpb.wtf



    Дорогой пользователь! Огромная просьба, поблагодарите релизера, оцените раздачу и оставьте свои комментарий, если Вы скачали Мент в законе через торрент бесплатно! Внесите свою лепту в развитие PiratBit!
    Комментировать посты могут только пользователи прошедшие не сложную регистрацию
    Показать сообщения:    

    Мент в законе через торрент
    Скачать бесплатно Мент в законе
    Мент в законе скачать торрент
    Мент в законе смотреть онлайн
    Cкачать фильм Мент в законе бесплатно
    Мент в законе скачать торрент в хорошем качестве
    Мент в законе смотреть онлайн бесплатно в хорошем качестве


    Вы не можете начинать темы
    Вы не можете отвечать на сообщения
    Вы не можете редактировать свои сообщения
    Вы не можете удалять свои сообщения
    Вы не можете голосовать в опросах
    Вы не можете прикреплять файлы к сообщениям
    Вы можете скачивать файлы