Ссылка на приватное зеркало нашего сайта всего за 1$. Внимание количество ограничено!!!

2 сезон

iTunes

1 сезон

1

iTunes

iTunes

iTunes

1 сезон

RePack

30

ИГРА 18+

pack

ВАЖНО

!!Акция!!

Alien_RageХит недели

RePack

MK11
pack

Забери бонус

RePack

jed

!!Акция!!

Alien_Rage

RePack

fifa19

RePack

Assassins Creed: Odyssey

RePack

NEED FOR SPEED™ PAYBACK

4 сезон

9 сезон

Бесстыжие 9 сезон

Все сериалы

все сериалы на PB.wtf

RePack

FAR CRY 5
  

Что и требовалось доказать / Серия 1-8 из 8 (Иван Китаев) [2016 г., Детектив, SATRip] pb.wtf

Что и требовалось доказать через торрент pb.wtf

Размер: 5.44 GB | Добавлен: 3 года 6 мес. назад | Торрент скачан:110 раз
Скачать  

17-04-2017 12:05 Что и требовалось доказать Скачать торрент  

Что и требовалось доказать / Серия 1-8 из 8
Год выпуска: 2016
Страна: Россия
Жанр: Детектив
Продолжительность: 8 x ~ 00:45:00
Субтитры: нет

Режиссер: Иван Китаев

В ролях: Денис Шведов, Тимофей Трибунцев, Лидия Милюзина, Наталья Высочанская, Софья Озерова, Дмитрий Воробьёв, Дарья Румянцева, Андрей Полищук, Юлия Марченко, Виталий Куликов, Дмитрий Енин, Никита Барсуков, Юлия Башорина, Екатерина Савелкова, Ирина Марцинкевич, Ольга Кожевникова

Описание: Расследуя запутанные криминальные дела, следователь полиции Ширяев даже и не предполагал, что с помощью математики можно решить величайшие загадки, пока не познакомился с экстравагантным профессором Штоппелем. Анализируя хитроумные преступления и выявляя их закономерность, с помощью теорем и расчетов профессор помогает полиции найти и обезвредить преступников.

Качество: SATRip
Формат: AVI
Видео кодек: XviD
Аудио кодек: MP3
Видео: 720x448 (1.80:1), 25 fps, XviD build 50 ~1800 kbps avg, 0.25 bit/pixel
Аудио#1: 48 kHz, MPEG Layer 3, 2 ch, ~128.00 kbps avg




General
Complete name : H:\релизы.торрентфайл\Chto.i.trebovalos.dokazat.01.SATRip.[www.riperam.org].avi
Format : AVI
Format/Info : Audio Video Interleave
File size : 666 MiB
Duration : 48mn 2s
Overall bit rate : 1 938 Kbps
Writing application : VirtualDubMod 1.5.10.3 |
Writing library : VirtualDubMod build 2550/release

Video
ID : 0
Format : MPEG-4 Visual
Format profile : Advanced Simple@L5
Format settings, BVOP : 2
Format settings, QPel : No
Format settings, GMC : No warppoints
Format settings, Matrix : Default (H.263)
Codec ID : XVID
Codec ID/Hint : XviD
Duration : 48mn 2s
Bit rate : 1 800 Kbps
Width : 704 pixels
Height : 448 pixels
Display aspect ratio : 1.571
Frame rate : 25.000 fps
Color space : YUV
Chroma subsampling : 4:2:0
Bit depth : 8 bits
Scan type : Progressive
Compression mode : Lossy
Bits/(Pixel*Frame) : 0.228
Stream size : 619 MiB (93%)
Writing library : XviD 1.2.1 (UTC 2008-12-04)

Audio
ID : 1
Format : MPEG Audio
Format version : Version 1
Format profile : Layer 3
Mode : Joint stereo
Mode extension : MS Stereo
Codec ID : 55
Codec ID/Hint : MP3
Duration : 48mn 2s
Bit rate mode : Constant
Bit rate : 128 Kbps
Channel(s) : 2 channels
Sampling rate : 48.0 KHz
Compression mode : Lossy
Stream size : 44.0 MiB (7%)
Alignment : Aligned on interleaves
Interleave, duration : 40 ms (1.00 video frame)
Interleave, preload duration : 504 ms
Writing library : LAME3.99r
Encoding settings : -m j -V 4 -q 9 -lowpass 17 -b 128

Внимание! Раздача ведётся путём добавления новых серий; при каждом добавлении создётся новый торрент. Чтобы начать докачку новой серии, пользователям необходимо сделать следующее:
  • Остановить скачивание,
  • Удалить старый торрент у себя из клиента (старые серии удалять не надо),
  • Скачать новый торрент и запустить его у себя в клиенте вместо старого, при этом указать клиенту путь в старую папку куда и должно происходить скачивание новых серий.
Ваш клиент при этом должен произвести хеширование (проверку) старой папки (если не производит сам - помогите ему сделать это), и будет докачивать только те серии которых у вас ещё нет. Старые серии при этом не удаляются, а продолжают раздаваться!

Eсли вы уже удалили старые серии, то предотвратить повторную закачку старых серий можно, отжав галочку в соответсвующих местах при запуске нового торрента. По возможности, желательно не удалять старые серии как можно дольше чтобы релизёр не столько продолжал раздавать старые серии, а смог сконцентрироваться на новых.
pb.wtf



Скачать Что и требовалось доказать через торрент http://pic1.kartinco.top/images/11/5ciq2.jpg Скачать фильм Что и требовалось доказать через торрент бесплантно в хорошем качестве Описание: Расследуя запутанные криминальные дела, следователь полиции Ширяев даже и не предполагал, что с помощью математики можно решить ... 9.5 10 14
Info! Золотая раздача, скачанное не засчитывается.
Торрент: Зарегистрирован [2017-04-20 21:39] · скачан: 110 раз
Статус: √ проверено
Размер: 5.44 GB
Как cкачать? Как скачать Что и требовалось доказать через торрент | qTorrent

% Раздел Тема Автор DL S | L
Наши сериалы [ 4.83 GB ] Что и требовалось доказать / Серии: 1-8 из 8 [2016 SATRip-AVC] aleksan55 Скачать
1 | 0


Последний раз редактировалось: oleg8 (2017-04-20 21:55), всего редактировалось 5 раз(а)

28-11-2019 20:33  

Отключить всю рекламу на сайте

17-04-2017 12:49 Что и требовалось доказать Скачать торрент  

добавил 2 серию.pb.wtf



18-04-2017 13:14 Что и требовалось доказать Скачать торрент  

добавил 3-4 серии.pb.wtf



18-04-2017 13:20 Что и требовалось доказать Скачать торрент  

Нормальный сериал pb.wtf



19-04-2017 03:31 Что и требовалось доказать Скачать торрент  

Косяк!Нет первой серии.Первая и третья - одно и тоже.pb.wtf



19-04-2017 04:04 Что и требовалось доказать Скачать торрент  

smok62 писал(а):

Косяк!Нет первой серии.Первая и третья - одно и тоже.

подтверждаюpb.wtf
!Messa-fan писал(а):

! неоформлено



19-04-2017 04:43 Что и требовалось доказать Скачать торрент  

заменил 1 серию,мой косяк . Перекачайте торрент файл.pb.wtf



19-04-2017 21:39 Что и требовалось доказать Скачать торрент  

добавил 5-6 серии.pb.wtf



20-04-2017 21:55 Что и требовалось доказать Скачать торрент  

добавил 7-8 серии.pb.wtf



    Дорогой пользователь! Огромная просьба, поблагодарите релизера, оцените раздачу и оставьте свои комментарий, если Вы скачали Что и требовалось доказать через торрент бесплатно! Внесите свою лепту в развитие PiratBit!
    Комментировать посты могут только пользователи прошедшие не сложную регистрацию
    Показать сообщения:    

    Что и требовалось доказать через торрент
    Скачать бесплатно Что и требовалось доказать
    Что и требовалось доказать скачать торрент
    Что и требовалось доказать смотреть онлайн
    Cкачать фильм Что и требовалось доказать бесплатно
    Что и требовалось доказать скачать торрент в хорошем качестве
    Что и требовалось доказать смотреть онлайн бесплатно в хорошем качестве


    Вы не можете начинать темы
    Вы не можете отвечать на сообщения
    Вы не можете редактировать свои сообщения
    Вы не можете удалять свои сообщения
    Вы не можете голосовать в опросах
    Вы не можете прикреплять файлы к сообщениям
    Вы можете скачивать файлы