2 сезон

iTunes

MVO

1

2 сезон

iTunes

iTunes

1 сезон

RePack

30

Новинка

ВАЖНО

ИГРА 18+

pack

RePack

MK11
pack

Легкие деньги

RePack

jed

RePack

fifa19

RePack

RDR2

RePack

NEED FOR SPEED™ PAYBACK

4 сезон

9 сезон

Бесстыжие 9 сезон

Все сериалы

все сериалы на PB.wtf

RePack

FAR CRY 5

Anonymous, доброе утро, мы не успеваем собрать деньги на оплату серверов за декабрь и январь, помогите нам пожалуйста в это трудное время. В качестве благодарности мы отключим Вам всю рекламу на сайте (укажите свой ник в строку Ваше имя)!

×
  
Magnet ссылка

Топ Гир / Top Gear / Сезон 24 / Серии 1-7 из 7 (Крис Эванс, Мэтт ЛеБлан) [2017, Авто-шоу, HDTVRip] MVO [IdeaFilm] pb.wtf

Топ Гир через торрент pb.wtf

Размер: 5.17 GB | Добавлен: 3 года 8 мес. назад | Торрент скачан:68 раз
Скачать  

17-04-2017 12:51 Топ Гир Скачать торрент  

Топ Гир / Top GearГод выпуска: 2017
Страна: Великобритания
Жанр: Авто-шоу
Продолжительность: 7 х ~00:60:00
Перевод: Любительский (многоголосый) - IdeaFilm
Субтитры: отсутствуют

Режиссер: Крис Эванс, Мэтт ЛеБлан

rating

В ролях:

Крис Эванс, Мэтт ЛеБлан, Эдди Джордан, Стиг

Описание:

Новый сезон с новыми ведущими после ухода знаменитой троицы. Top Gear (англ. Top Gear) — популярная английская телепередача, посвящённая автомобилям. Первые выпуски передачи появились в 1977 году. Эта передача была просто пересказ журнала, в течение долгого времени формат передачи не менялся. Но в 2002 году, произошел перезапуск цикла, и вместо сухого пересказа, появился современный «Top Gear», с юмором, приколами, и фирменными тестами. Аудитория программ в странах официальной трансляции составляет около 350 миллионов человек..

Качество: HDTVRip
Формат: AVI
Видео кодек: XviD
Аудио кодек: AC3

Видео: 720x400 (1.80:1), 25.000 fps, XviD build 50 ~1549 kbps avg, 0.215 bit/pixel
Аудио#1: 48 kHz, AC3 Dolby Digital, 2 ch, ~192 kbps
скриншот   скриншот   скриншот   скриншот  

Общее
Полное имя : D:\Top.Gear.S24.HDTVRip\Top.Gear.S24E01.HDTVRip-IDEAFILM.avi
Формат : AVI
Формат/Информация : Audio Video Interleave
Размер файла : 789 Мбайт
Продолжительность : 1 ч. 2 м.
Общий поток : 1751 Кбит/сек
Программа кодирования : VirtualDubMod 1.5.10.2 (build 2540/release)
Библиотека кодирования : VirtualDubMod build 2540/release

Видео
Идентификатор : 0
Формат : MPEG-4 Visual
Профиль формата : Advanced Simple@L5
Параметр BVOP формата : 2
Параметр QPel формата : Нет
Параметр GMC формата : Без точки перехода
Параметр матрицы формата : Default (MPEG)
Идентификатор кодека : XVID
Идентификатор кодека/Подсказка : XviD
Продолжительность : 1 ч. 2 м.
Битрейт : 1549 Кбит/сек
Ширина : 720 пикселей
Высота : 400 пикселей
Соотношение сторон : 16:9
Частота кадров : 25,000 кадров/сек
Цветовое пространство : YUV
Субдискретизация насыщенности : 4:2:0
Битовая глубина : 8 бит
Тип развёртки : Прогрессивная
Метод сжатия : С потерями
Бит/(Пиксели*Кадры) : 0.215
Размер потока : 698 Мбайт (88%)
Библиотека кодирования : XviD 1.2.1 (UTC 2008-12-04)

Аудио
Идентификатор : 1
Формат : AC-3
Формат/Информация : Audio Coding 3
Расширение режима : CM (complete main)
Параметр Endianness формата : Big
Идентификатор кодека : 2000
Продолжительность : 1 ч. 2 м.
Вид битрейта : Постоянный
Битрейт : 192 Кбит/сек
Каналы : 2 канала
Расположение каналов : Front: L R
Частота : 48,0 КГц
Частота кадров : 31,250 кадров/сек (1536 spf)
Метод сжатия : С потерями
Размер потока : 86,5 Мбайт (11%)
Выравнивание : Разделение по промежуткам
Продолжительность промежутка : 40 мс. (1,00 видеокадр)
Время предзагрузки промежутка : 500 мс.

Внимание! Раздача ведётся путём добавления новых серий; при каждом добавлении создаётся новый торрент. Чтобы начать докачку новой серии, пользователям необходимо сделать следующее:
(1) остановить скачивание,
(2) удалить старый торрент у себя из клиента (старые серии удалять не надо),
(3) скачать новый торрент и запустить его у себя в клиенте вместо старого, при этом указать клиенту путь в старую папку куда и должно происходить скачивание новых серий.

Ваш клиент при этом должен произвести хеширование (проверку) старой папки (если не производит сам - помогите ему сделать это), и будет докачивать только те серии которых у вас ещё нет. Старые серии при этом не удаляются, а продолжают раздаваться!

Eсли вы уже удалили старые серии, то предотвратить повторную закачку старых серий можно, отжав галочку в соответствующих местах при запуске нового торрента. По возможности, желательно не удалять старые серии как можно дольше, чтобы релизёр не столько продолжал раздавать старые серии, а смог сконцентрироваться на новых.
pb.wtf



Скачать Топ Гир через торрент http://s019.radikal.ru/i600/1704/5f/4ef75053d95f.jpg Скачать фильм Топ Гир через торрент бесплантно в хорошем качестве Описание: Новый сезон с новыми ведущими после ухода знаменитой троицы. Top Gear (англ. Top Gear) — популярная английская телепередача, ... 10 10 9
Торрент: Зарегистрирован [2017-05-08 20:23] · скачан: 68 раз
Статус: √ проверено
Размер: 5.17 GB
Как cкачать? Как скачать Топ Гир через торрент | UTorrent



Последний раз редактировалось: bober100 (2017-05-08 21:06), всего редактировалось 2 раз(а)

28-11-2019 20:33  

Отключить всю рекламу на сайте

17-04-2017 17:03 Топ Гир Скачать торрент  

нее, это уже не "топ гир"pb.wtf



18-04-2017 19:01 Топ Гир Скачать торрент  

shadow912 писал(а):

нее, это уже не "топ гир"

точнякpb.wtf



20-04-2017 17:55 Топ Гир Скачать торрент  

ну у мэта из друзья есть по крайней мере чувство юмора. вобщем гляну. спс за раздачуpb.wtf



    Дорогой пользователь! Огромная просьба, поблагодарите релизера, оцените раздачу и оставьте свои комментарий, если Вы скачали Топ Гир через торрент бесплатно! Внесите свою лепту в развитие PiratBit!
    Комментировать посты могут только пользователи прошедшие не сложную регистрацию
    Показать сообщения:    

    Топ Гир через торрент
    Скачать бесплатно Топ Гир
    Топ Гир скачать торрент
    Топ Гир смотреть онлайн
    Cкачать фильм Топ Гир бесплатно
    Топ Гир скачать торрент в хорошем качестве
    Топ Гир смотреть онлайн бесплатно в хорошем качестве


    Вы не можете начинать темы
    Вы не можете отвечать на сообщения
    Вы не можете редактировать свои сообщения
    Вы не можете удалять свои сообщения
    Вы не можете голосовать в опросах
    Вы не можете прикреплять файлы к сообщениям
    Вы можете скачивать файлы