2 сезон

iTunes

1 сезон

1

iTunes

iTunes

iTunes

1 сезон

RePack

30

ИГРА 18+

pack

ВАЖНО

!!Акция!!

Alien_RageХит недели

RePack

MK11
pack

Забери бонус

RePack

jed

!!Акция!!

Alien_Rage

RePack

fifa19

RePack

Assassins Creed: Odyssey

RePack

NEED FOR SPEED™ PAYBACK

4 сезон

9 сезон

Бесстыжие 9 сезон

Все сериалы

все сериалы на PB.wtf

RePack

FAR CRY 5
  

Трасса смерти / Серия 1-10 из 10 (Денис Нейманд) [2017 г., Драма, криминал, SATRip] pb.wtf

Трасса смерти через торрент pb.wtf

Качают: 1 [ 0 KB/s ]
Размер: 6.57 GB | Добавлен: 3 года 6 мес. назад | Торрент скачан:279 раз
Скачать  

17-04-2017 13:03 Трасса смерти Скачать торрент  

Трасса смерти
Год выпуска: 2017
Страна: Россия
Жанр: Драма, криминал
Продолжительность: 10 х 00:45:00
Субтитры: нет

Режиссер: Денис Нейманд

В ролях: Сергей Маковецкий, Андрей Мерзликин, Агния Кузнецова, Елизавета Лотова, Маргарита Дьяченкова, Александр Лепихов, Эдуард Айткулов, Дмитрий Брауэр, Александр Лучинин, Артём Семакин, Александр Тютин, Александр Сергеев, Дмитрий Смирнов, Денис Дружинин, Тина Тарусина, Сейдулла Молдаханов, Дарья Кудрявцева, Наталия Лесниковская, Вячеслав Дробинков

Описание: На трассе федерального значения банда дорожных убийц вершит террор. Преступники разбрасывают по асфальту шипы из гвоздей, останавливая машины, расстреливают автомобилистов и таинственным образом исчезают. Журналисты называют их «Банда GTA» по аналогии с известной компьютерной игрой. Дело поручают следователям Звонарёву (Андрей Мерзликин) из ОВД и Мельникову (Сергей Маковецкий) из СК по раскрытию особо тяжких преступлений. Их методы разные, но цель одна – установить личность преступников и предотвратить новые трагедии.

Качество: SATRip
Формат: AVI
Видео кодек: XviD
Аудио кодек: MP3
Видео: 720x400 (1.80:1), 25 fps, XviD build 50 ~1800 kbps avg, 0.25 bit/pixel
Аудио#1: 48 kHz, MPEG Layer 3, 2 ch, ~128.00 kbps avg



General
Complete name : H:\релизы.торрентфайл\Trassa.smerti.01.SATRip.[www.riperam.org].avi
Format : AVI
Format/Info : Audio Video Interleave
File size : 685 MiB
Duration : 48mn 5s
Overall bit rate : 1 993 Kbps
Writing application : VirtualDubMod 1.5.10.3 | www.virtualdub-fr.org || (build 2550/release)
Writing library : VirtualDubMod build 2550/release

Video
ID : 0
Format : MPEG-4 Visual
Format profile : Advanced Simple@L5
Format settings, BVOP : 2
Format settings, QPel : No
Format settings, GMC : No warppoints
Format settings, Matrix : Default (H.263)
Codec ID : XVID
Codec ID/Hint : XviD
Duration : 48mn 5s
Bit rate : 1 855 Kbps
Width : 720 pixels
Height : 400 pixels
Display aspect ratio : 16:9
Frame rate : 25.000 fps
Color space : YUV
Chroma subsampling : 4:2:0
Bit depth : 8 bits
Scan type : Progressive
Compression mode : Lossy
Bits/(Pixel*Frame) : 0.258
Stream size : 638 MiB (93%)
Writing library : XviD 1.2.1 (UTC 2008-12-04)

Audio
ID : 1
Format : MPEG Audio
Format version : Version 1
Format profile : Layer 3
Mode : Joint stereo
Mode extension : MS Stereo
Codec ID : 55
Codec ID/Hint : MP3
Duration : 48mn 5s
Bit rate mode : Constant
Bit rate : 128 Kbps
Channel(s) : 2 channels
Sampling rate : 48.0 KHz
Compression mode : Lossy
Stream size : 44.0 MiB (6%)
Alignment : Aligned on interleaves
Interleave, duration : 40 ms (1.00 video frame)
Interleave, preload duration : 504 ms
Writing library : LAME3.99r
Encoding settings : -m j -V 4 -q 9 -lowpass 17 -b 128

Внимание! Раздача ведётся путём добавления новых серий; при каждом добавлении создётся новый торрент. Чтобы начать докачку новой серии, пользователям необходимо сделать следующее:
  • Остановить скачивание,
  • Удалить старый торрент у себя из клиента (старые серии удалять не надо),
  • Скачать новый торрент и запустить его у себя в клиенте вместо старого, при этом указать клиенту путь в старую папку куда и должно происходить скачивание новых серий.
Ваш клиент при этом должен произвести хеширование (проверку) старой папки (если не производит сам - помогите ему сделать это), и будет докачивать только те серии которых у вас ещё нет. Старые серии при этом не удаляются, а продолжают раздаваться!

Eсли вы уже удалили старые серии, то предотвратить повторную закачку старых серий можно, отжав галочку в соответсвующих местах при запуске нового торрента. По возможности, желательно не удалять старые серии как можно дольше чтобы релизёр не столько продолжал раздавать старые серии, а смог сконцентрироваться на новых.
pb.wtf



Скачать Трасса смерти через торрент http://pic1.kartinco.top/images/11/jzj4f.jpg Скачать фильм Трасса смерти через торрент бесплантно в хорошем качестве Описание: На трассе федерального значения банда дорожных убийц вершит террор. Преступники разбрасывают по асфальту шипы из гвоздей, ... 9.4 10 20
Торрент: Зарегистрирован [2017-04-21 13:49] · скачан: 279 раз
Статус: √ проверено
Размер: 6.57 GB
Как cкачать? Как скачать Трасса смерти через торрент | qTorrent

% Раздел Тема Автор DL S | L
Наши сериалы [ 7.01 GB ] Трасса смерти / Серии: 1-10 из 10 [2017 HDTVRip-AVC] ExKinoRay Enigma2010 Скачать
2 | 0
R.G.Resident - Сериалы, Видео [ 20.52 GB ] Трасса смерти / Сезон: 1 / Серии: 1-10 из 10 [2017 HDTV 1080i] [Русский] От R.G.Resident White Smoke Скачать
1 | 0
Наши сериалы [ 5.33 GB ] Трасса смерти / Серии: 1-10 из 10 [2017 SATRip-AVC] aleksan55 Скачать
1 | 0


Последний раз редактировалось: oleg8 (2017-04-21 13:49), всего редактировалось 7 раз(а)

28-11-2019 20:33  

Отключить всю рекламу на сайте

17-04-2017 13:10 Трасса смерти Скачать торрент  

че правда 2917 года выпускаpb.wtf



17-04-2017 13:11 Трасса смерти Скачать торрент  

Год выпуска: 2917pb.wtf



17-04-2017 13:11 Трасса смерти Скачать торрент  

Он Из Будущегоpb.wtf



17-04-2017 13:13 Трасса смерти Скачать торрент  

Ксандер писал(а):

че правда 2917 года выпуска

ошибся малехо-3917 года сериальчик pb.wtf



17-04-2017 13:59 Трасса смерти Скачать торрент  

добавил 2 серию.pb.wtf



18-04-2017 15:59 Трасса смерти Скачать торрент  

oleg8 писал(а):

Ксандер писал(а):

че правда 2917 года выпуска

ошибся малехо-3917 года сериальчик

Хороший ответ!pb.wtf



21-04-2017 14:13 Трасса смерти Скачать торрент  

Роль или фильм уж точно не для Андрея Мерзликина. Совсем что то слабенько. pb.wtf



    Дорогой пользователь! Огромная просьба, поблагодарите релизера, оцените раздачу и оставьте свои комментарий, если Вы скачали Трасса смерти через торрент бесплатно! Внесите свою лепту в развитие PiratBit!
    Комментировать посты могут только пользователи прошедшие не сложную регистрацию
    Показать сообщения:    

    Трасса смерти через торрент
    Скачать бесплатно Трасса смерти
    Трасса смерти скачать торрент
    Трасса смерти смотреть онлайн
    Cкачать фильм Трасса смерти бесплатно
    Трасса смерти скачать торрент в хорошем качестве
    Трасса смерти смотреть онлайн бесплатно в хорошем качестве


    Вы не можете начинать темы
    Вы не можете отвечать на сообщения
    Вы не можете редактировать свои сообщения
    Вы не можете удалять свои сообщения
    Вы не можете голосовать в опросах
    Вы не можете прикреплять файлы к сообщениям
    Вы можете скачивать файлы