Ссылка на приватное зеркало нашего сайта всего за 1$. Внимание количество ограничено!!!

2 сезон

iTunes

1 сезон

1

2 сезон

2 сезон

iTunes

1 сезон

RePack

30

Новинка

ВАЖНО

ИГРА 18+

pack

RePack

MK11
pack

Забери бонус

RePack

jed

!!Акция!!

Alien_Rage

RePack

fifa19

RePack

Assassins Creed: Odyssey

RePack

NEED FOR SPEED™ PAYBACK

4 сезон

9 сезон

Бесстыжие 9 сезон

Все сериалы

все сериалы на PB.wtf

RePack

FAR CRY 5
  

Оставленные / The Leftovers / 3 сезон / Серии 1-8 из 8 (Мими Ледер, Питер Берг) [2017, фэнтези, драма, детектив, HDTVRip] MVO [Амедиа] pb.wtf

Оставленные через торрент pb.wtf

Размер: 5.18 GB | Добавлен: 3 года 5 мес. назад | Торрент скачан:34 раза
Скачать  

17-04-2017 16:06 Оставленные Скачать торрент  

Оставленные / The Leftovers
Год выпуска: 2017
Страна: США
Жанр: фэнтези, драма, детектив
Всего серий: 8
Продолжительность: 8 x ~ 00:55:00
Перевод: Профессиональный многоголосый -
Субтитры: Русские (амедиа)

Режиссер: Мими Ледер, Питер Берг, Мишель Максвелл МакЛарен

rating

В ролях:

Лив Тайлер, Фрэнк Хартс, Майкл Гэстон, Джастин Теру, Кэрри Кун, Маргарет Куэлли, Энни Цянь, Эми Бреннеман, Кристофер Экклстон, Энн Дауд и др.

Описание:

Сериал HBO от сценариста Дэймонда Линделофа («Остаться в живых») и режиссера Питера Берга («Морской бой», «Хэнкок»). Внезапно 2% всех землян таинственно исчезают. Оставшимся приходится как-то жить дальше. Во втором сезоне герои переезжают из пригорода Нью-Йорка в Техас, в город под названием «Чудо», которого удивительным образом не коснулось исчезновение людей. Город становится новой Меккой для паломников со всей страны, из-за чего его обносят забором и дают посетителям только однодневные пропуски. Но имидж райского сада очень скоро будет омрачен очередным таинственным исчезновением...

Качество: HDTVRip
Формат: AVI
Видео кодек: XviD
Аудио кодек: MP3

Видео: 720x400 (1.80:1), 25 fps, XviD build 50 ~1300 kbps avg, 0.18 bit/pixel
Аудио#1: Rus: 48 kHz, MPEG Layer 3, 2 ch, ~128.00 kbps avg (Amedia)
Аудио#2: Eng: 48 kHz, MPEG Layer 3, 2 ch, ~128.00 kbps avg (original)


скриншот   скриншот   скриншот   скриншот  





бщее
Полное имя : D:\The Leftovers (Season 03)\Subtitles\The.Leftovers.S03E01.XviD.Amedia.(qqss44).srt
Формат : SubRip
Размер файла : 50,0 Кбайт

Текст
Формат : SubRip
Метод сжатия : Без потерь

Общее
Полное имя : D:\The Leftovers (Season 03)\The.Leftovers.S03E01.XviD.Amedia.(qqss44).avi
Формат : AVI
Формат/Информация : Audio Video Interleave
Размер файла : 652 Мбайт
Продолжительность : 57 м. 59 с.
Общий поток : 1571 Кбит/сек
Программа кодирования : VirtualDubMod 1.5.10.3 | www.virtualdub-fr.org || (build 2550/release)
Библиотека кодирования : VirtualDubMod build 2550/release

Видео
Идентификатор : 0
Формат : MPEG-4 Visual
Профиль формата : Advanced Simple@L5
Параметр BVOP формата : 2
Параметр QPel формата : Нет
Параметр GMC формата : Без точки перехода
Параметр матрицы формата : Выборочная
Идентификатор кодека : XVID
Идентификатор кодека/Подсказка : XviD
Продолжительность : 57 м. 59 с.
Битрейт : 1301 Кбит/сек
Ширина : 720 пикселей
Высота : 400 пикселей
Соотношение сторон : 16:9
Частота кадров : 25,000 кадров/сек
Цветовое пространство : YUV
Субдискретизация насыщенности : 4:2:0
Битовая глубина : 8 бит
Тип развёртки : Прогрессивная
Метод сжатия : С потерями
Бит/(Пиксели*Кадры) : 0.181
Размер потока : 540 Мбайт (83%)
Библиотека кодирования : XviD 73

Аудио #1
Идентификатор : 1
Формат : MPEG Audio
Версия формата : Version 1
Профиль формата : Layer 3
Режим : Joint stereo
Расширение режима : MS Stereo
Идентификатор кодека : 55
Идентификатор кодека/Подсказка : MP3
Продолжительность : 57 м. 59 с.
Вид битрейта : Постоянный
Битрейт : 128 Кбит/сек
Каналы : 2 канала
Частота : 48,0 КГц
Метод сжатия : С потерями
Размер потока : 53,1 Мбайт (8%)
Выравнивание : Соединение по промежуткам
Продолжительность промежутка : 40 мс. (1,00 видеокадр)
Время предзагрузки промежутка : 504 мс.

Аудио #2
Идентификатор : 2
Формат : MPEG Audio
Версия формата : Version 1
Профиль формата : Layer 3
Режим : Joint stereo
Расширение режима : MS Stereo
Идентификатор кодека : 55
Идентификатор кодека/Подсказка : MP3
Продолжительность : 57 м. 59 с.
Вид битрейта : Постоянный
Битрейт : 128 Кбит/сек
Каналы : 2 канала
Частота : 48,0 КГц
Метод сжатия : С потерями
Размер потока : 53,1 Мбайт (8%)
Выравнивание : Соединение по промежуткам
Продолжительность промежутка : 40 мс. (1,00 видеокадр)
Время предзагрузки промежутка : 504 мс.

Внимание! Раздача ведётся путём добавления новых серий; при каждом добавлении создаётся новый торрент. Чтобы начать докачку новой серии, пользователям необходимо сделать следующее:
(1) остановить скачивание,
(2) удалить старый торрент у себя из клиента (старые серии удалять не надо),
(3) скачать новый торрент и запустить его у себя в клиенте вместо старого, при этом указать клиенту путь в старую папку куда и должно происходить скачивание новых серий.

Ваш клиент при этом должен произвести хеширование (проверку) старой папки (если не производит сам - помогите ему сделать это), и будет докачивать только те серии которых у вас ещё нет. Старые серии при этом не удаляются, а продолжают раздаваться!

Eсли вы уже удалили старые серии, то предотвратить повторную закачку старых серий можно, отжав галочку в соответствующих местах при запуске нового торрента. По возможности, желательно не удалять старые серии как можно дольше, чтобы релизёр не столько продолжал раздавать старые серии, а смог сконцентрироваться на новых.
pb.wtf



Скачать Оставленные через торрент http://s019.radikal.ru/i609/1704/fe/31cc1aac3801.png Скачать фильм Оставленные через торрент бесплантно в хорошем качестве Описание: Сериал HBO от сценариста Дэймонда Линделофа («Остаться в живых») и режиссера Питера Берга («Морской бой», «Хэнкок»). Внезапно 2% ... 10 10 4
Торрент: Зарегистрирован [2017-06-14 21:29] · скачан: 34 раз
Статус: √ проверено
Размер: 5.18 GB
Как cкачать? Как скачать Оставленные через торрент | qTorrent

% Раздел Тема Автор DL S | L
Зарубежные сериалы [ 9.15 GB ] Оставленные / Остатки / The Leftovers / Сезон: 3 / Серии 1-8 из 8 [2017 WEB-DLRip-AVC] MVO [NewStudio] GEKADOL Скачать
1 | 0
Зарубежные сериалы [ 56.03 GB ] Оставленные / The Leftovers / Сезон: 3 / Серии: 1-8 из 8 [2017 WEBRip 1080p] MVO [Amedia] bober100 Скачать
1 | 0

28-11-2019 20:33  

Отключить всю рекламу на сайте

    Дорогой пользователь! Огромная просьба, поблагодарите релизера, оцените раздачу и оставьте свои комментарий, если Вы скачали Оставленные через торрент бесплатно! Внесите свою лепту в развитие PiratBit!
    Комментировать посты могут только пользователи прошедшие не сложную регистрацию
    Показать сообщения:    

    Оставленные через торрент
    Скачать бесплатно Оставленные
    Оставленные скачать торрент
    Оставленные смотреть онлайн
    Cкачать фильм Оставленные бесплатно
    Оставленные скачать торрент в хорошем качестве
    Оставленные смотреть онлайн бесплатно в хорошем качестве


    Вы не можете начинать темы
    Вы не можете отвечать на сообщения
    Вы не можете редактировать свои сообщения
    Вы не можете удалять свои сообщения
    Вы не можете голосовать в опросах
    Вы не можете прикреплять файлы к сообщениям
    Вы можете скачивать файлы