Ссылка на приватное зеркало нашего сайта всего за 1$. Внимание количество ограничено!!!

2 сезон

iTunes

1 сезон

1

iTunes

iTunes

iTunes

1 сезон

RePack

30

ИГРА 18+

pack

ВАЖНО

!!Акция!!

Alien_RageХит недели

RePack

MK11
pack

Забери бонус

RePack

jed

!!Акция!!

Alien_Rage

RePack

fifa19

RePack

Assassins Creed: Odyssey

RePack

NEED FOR SPEED™ PAYBACK

4 сезон

9 сезон

Бесстыжие 9 сезон

Все сериалы

все сериалы на PB.wtf

RePack

FAR CRY 5
  

Демон внутри / Вскрытие Джейн Доу / The Autopsy of Jane Doe (Андре Овредал ) [2016, ужасы, детектив, BDRip 720p] MVO [Лицензия / iTunes] pb.wtf

Демон внутри через торрент pb.wtf

Размер: 4.91 GB | Добавлен: 3 года 6 мес. назад | Торрент скачан:556 раз
Скачать  

18-04-2017 15:01 Демон внутри Скачать торрент  

Демон внутри / Вскрытие Джейн ДоуThe Autopsy of Jane Doe«Есть вещи страшнее смерти» Год выпуска: 2016
Страна: Великобритания, США
Жанр: ужасы, детектив
Продолжительность: 01:26:22
Перевод: Профессиональный многоголосый | iTunes
Субтитры: русские (Full), английские (Full), английские (SDH {Colored))
Режиссер: Андре Овредал
В ролях:
Брайан Кокс (Tommy), Эмиль Хирш (Austin), Офелия Ловибонд (Emma), Майкл МакЭлхаттон (Sheriff Burke), Олуэн Катрин Келли (Jane Doe), Джейн Перри (Lieutenant Wade), Паркер Сойерс (Trooper Cole), Мэри Дадди (Irene Daniels), Марк Феникс (Louis Tannis), Сидни (Stanley the Cat), Ив О’Хара (Deputy Ballard, в титрах не указан)
Описание:
Патологоанатомы маленького городка получают тело жертвы таинственного убийства - красивой и молодой девушки без видимой причины смерти. Они пытаются выяснить, кто она и как умерла, обнаруживая все более причудливые подсказки, которые ведут к тайнам её жизни и смерти.
Рейтинг:

MPAA: R - Лицам до 17 лет обязательно присутствие взрослого
Качество: BDRip 720p
Формат: MKV
Видео: AVC, 1280x536 (2.40:1), 6250 kbps, 23,976 fps, 0,380 bpp
Аудио №1: русский / AC3 / 5.1 / 48 kHz / 384 kbps / ||
Аудио №2: английский / DTS / 5.1 / 48 kHz / 1509 kbps / 16 bit
Навигация по главам: есть
Релиз от: Автор релиза:
General
Unique ID : 237587613259331525236261432300170798639 (0xB2BDB5BAA411B0EB98130039B9CE662F)
Complete name : The.Autopsy.of.Jane.Doe.2016.BDRip.720p.ExKInoRay.mkv
Format : Matroska
Format version : Version 4 / Version 2
File size : 4.91 GiB
Duration : 1 h 26 min
Overall bit rate : 8 143 kb/s
Encoded date : UTC 2017-04-18 09:30:04
Writing application : mkvmerge v10.0.0 ('To Drown In You') 64bit
Writing library : libebml v1.3.4 + libmatroska v1.4.5

Video
ID : 1
Format : AVC
Format/Info : Advanced Video Codec
Format profile : High@L4.1
Format settings, CABAC : Yes
Format settings, ReFrames : 12 frames
Codec ID : V_MPEG4/ISO/AVC
Duration : 1 h 26 min
Bit rate : 6 250 kb/s
Width : 1 280 pixels
Height : 536 pixels
Display aspect ratio : 2.40:1
Frame rate mode : Constant
Frame rate : 23.976 (24000/1001) FPS
Color space : YUV
Chroma subsampling : 4:2:0
Bit depth : 8 bits
Scan type : Progressive
Bits/(Pixel*Frame) : 0.380
Stream size : 3.77 GiB (77%)
Writing library : x264 core 142 r2431+42 c69a006 tMod [8-bit@all X86_64]
Encoding settings : cabac=1 / ref=12 / deblock=1:-3:-3 / analyse=0x3:0x133 / me=umh / subme=11 / psy=1 / fade_compensate=0.00 / psy_rd=1.05:0.15 / mixed_ref=1 / me_range=48 / chroma_me=1 / trellis=2 / 8x8dct=1 / cqm=0 / deadzone=21,11 / fast_pskip=1 / chroma_qp_offset=-3 / threads=16 / lookahead_threads=2 / sliced_threads=0 / nr=0 / decimate=0 / interlaced=0 / bluray_compat=0 / constrained_intra=0 / fgo=0 / bframes=8 / b_pyramid=2 / b_adapt=2 / b_bias=0 / direct=3 / weightb=1 / open_gop=0 / weightp=2 / keyint=240 / keyint_min=23 / scenecut=40 / intra_refresh=0 / rc_lookahead=60 / rc=2pass / mbtree=1 / bitrate=6250 / ratetol=1.0 / qcomp=0.70 / qpmin=0:0:0 / qpmax=69:69:69 / qpstep=4 / cplxblur=20.0 / qblur=0.5 / vbv_maxrate=50000 / vbv_bufsize=62500 / nal_hrd=none / filler=0 / ip_ratio=1.30 / aq=1:0.80 / aq-sensitivity=10.00 / aq-factor=1.00:1.00:1.00 / aq2=0 / aq3=0
Language : English
Default : Yes
Forced : No
Color range : Limited
Color primaries : BT.709
Transfer characteristics : BT.709
Matrix coefficients : BT.709

Audio #1
ID : 2
Format : AC-3
Format/Info : Audio Coding 3
Mode extension : CM (complete main)
Format settings, Endianness : Big
Codec ID : A_AC3
Duration : 1 h 26 min
Bit rate mode : Constant
Bit rate : 384 kb/s
Channel(s) : 6 channels
Channel positions : Front: L C R, Side: L R, LFE
Sampling rate : 48.0 kHz
Frame rate : 31.250 FPS (1536 spf)
Compression mode : Lossy
Stream size : 237 MiB (5%)
Title : iTunes
Language : Russian
Default : Yes
Forced : No

Audio #2
ID : 3
Format : DTS
Format/Info : Digital Theater Systems
Mode : 16
Format settings, Endianness : Big
Codec ID : A_DTS
Duration : 1 h 26 min
Bit rate mode : Constant
Bit rate : 1 509 kb/s
Channel(s) : 6 channels
Channel positions : Front: L C R, Side: L R, LFE
Sampling rate : 48.0 kHz
Frame rate : 93.750 FPS (512 spf)
Bit depth : 16 bits
Compression mode : Lossy
Stream size : 932 MiB (19%)
Title : Original
Language : English
Default : No
Forced : No

Text #1
ID : 4
Format : UTF-8
Codec ID : S_TEXT/UTF8
Codec ID/Info : UTF-8 Plain Text
Duration : 1 h 19 min
Bit rate : 46 b/s
Count of elements : 702
Stream size : 27.2 KiB (0%)
Title : Full
Language : Russian
Default : No
Forced : No

Text #2
ID : 5
Format : UTF-8
Codec ID : S_TEXT/UTF8
Codec ID/Info : UTF-8 Plain Text
Duration : 1 h 18 min
Bit rate : 32 b/s
Count of elements : 600
Stream size : 18.4 KiB (0%)
Title : Full
Language : English
Default : No
Forced : No

Text #3
ID : 6
Format : UTF-8
Codec ID : S_TEXT/UTF8
Codec ID/Info : UTF-8 Plain Text
Duration : 1 h 22 min
Bit rate : 48 b/s
Count of elements : 925
Stream size : 29.3 KiB (0%)
Title : SDH {Colored)
Language : English
Default : No
Forced : No

Menu
00:00:00.000 : en:00:00:00.000
00:08:38.601 : en:00:08:38.601
00:17:04.607 : en:00:17:04.607
00:26:37.971 : en:00:26:37.971
00:36:47.706 : en:00:36:47.706
00:45:33.898 : en:00:45:33.898
00:53:16.819 : en:00:53:16.819
01:00:45.600 : en:01:00:45.600
01:06:12.635 : en:01:06:12.635
01:10:49.746 : en:01:10:49.746
01:16:26.499 : en:01:16:26.499
01:18:22.448 : en:01:18:22.448
• Норвежский режиссер Андре Овредал был вдохновлен сделать фильм ужасов после посещения показа фильма «Заклятие». Он немедленно позвонил своим агентам и сказал им, что они должны попытаться найти хороший сценарий ужасов для него. Через месяц они показали ему этот сценарий, и он сразу же заинтересовался.
• Мартин Шин был первоначально заявлен на роль Томми, но ему пришлось отказаться из-за несогласованности расписаний съемок. Он был заменен Брайаном Коксом.
• Песня, играющая на протяжении всего фильма, так же играла во «Флинстоунах». «Let the Sunshine in» в исполнении Pebbles.
• Имена Джон Доу (John Doe) и Джейн Доу (Jane Doe) — принятый в английском праве термин для обозначения неизвестного или анонимного участника процесса, зачастую истца. Позже термин перешел в медицину, где его используют для обозначения безымянного трупа или пациента без данных о личности (амнезия, бессознательное состояние).
• Любимая сцена режиссера в фильме — сцена в лифте, когда главные герои обсуждают смерть матери. Он сказал: «Я только поставил камеру, и мы наблюдали фантастическое выступление Брайана Кокса и Эмиля Хирша». Сцена, которой он больше всего гордился, как режиссер, была сцена раскрытия символов под кожей Джейн Доу. Как было заявлено на фестивале «Монстры кино» в Стокгольме 2016 года.
• Когда мы впервые видим Эмму (в коридоре возле морга), она носит колготки. Когда она заходит в морг ее ноги голые.
• После того, как тело Джейн Доу вносится в морге на тележке, Эмма уходит. На внешнем кадре, показывающим, как машина Эммы уезжает прочь, видно, что дорога заблокирована. Там нет места для скорой помощи или любого другого транспортного средства, чтобы оно смогло проехать мимо машины Эммы, и при этом нет достаточного места, чтобы подтолкнуть тележку к дому.


Скриншоты pb.wtf



Скачать Демон внутри через торрент http://i90.fastpic.ru/big/2017/0418/81/0754cceaa1730d4f77eba6d11133ad81.png Скачать фильм Демон внутри через торрент бесплантно в хорошем качестве Описание: Патологоанатомы маленького городка получают тело жертвы таинственного убийства - красивой и молодой девушки без видимой причины ... 8.7 10 11
Торрент: Зарегистрирован [2017-04-18 15:01] · скачан: 556 раз
Статус: √ проверено
Размер: 4.91 GB
Как cкачать? Как скачать Демон внутри через торрент | qTorrent

% Раздел Тема Автор DL S | L
Фильмы [HD 720p, 1080p] (Хороший звук DUB, MVO) [ 10.12 GB ] Демон внутри / Вскрытие Джейн Доу / The Autopsy of Jane Doe [2016 BDRip 1080p] MVO [] bober100 Скачать
2 | 0
Фильмы 2016 [DVDrip, WEB-DLRip, HDrip] (DUB, MVO) [ 1.46 GB ] Демон внутри / Вскрытие Джейн Доу / The Autopsy of Jane Doe [2016 BDRip] многоголосый [] Twi7ter Скачать
2 | 0
Фильмы 2016 [DVDrip, WEB-DLRip, HDrip] (DUB, MVO) [ 1.65 GB ] Демон внутри / Вскрытие Джейн Доу / The Autopsy of Jane Doe [2016 BDRip-AVC] 2xMVO [ + AlexFilm] bober100 Скачать
1 | 0
Фильмы (Blu-ray, BD-Remux, HDDVD) [ 19.65 GB ] Демон внутри / Вскрытие Джейн Доу / The Autopsy of Jane Doe [2016 BD Remux 1080p] MVO [US Transfer] [] bober100 Скачать
1 | 0
Фильмы (WEB-DL 720p, 1080p) [ 3.21 GB ] Демон внутри / Вскрытие Джейн Доу / The Autopsy of Jane Doe [2016 WEB-DL 1080p] многоголосый [AlexFilm] killermax2013 Скачать
1 | 0
Фильмы (HD 720p, 1080p) (48-60 fps) [ 13.06 GB ] Демон внутри / Вскрытие Джейн Доу / The Autopsy of Jane Doe [2016 BDRip 1080p / 60fps] MVO+2xVO sheker187 Скачать
1 | 0
Фильмы 2016 [DVDrip, WEB-DLRip, HDrip] (DUB, MVO) [ 1.42 GB ] Демон внутри / Вскрытие Джейн Доу / The Autopsy of Jane Doe [2016 BDRip] многоголосый [AlexFilm] Twi7ter Скачать
1 | 0

28-11-2019 20:33  

Отключить всю рекламу на сайте

18-04-2017 16:12 Демон внутри Скачать торрент  

Все хотел посмотреть и как то пропустил релиз! Спасибоpb.wtf



    Дорогой пользователь! Огромная просьба, поблагодарите релизера, оцените раздачу и оставьте свои комментарий, если Вы скачали Демон внутри через торрент бесплатно! Внесите свою лепту в развитие PiratBit!
    Комментировать посты могут только пользователи прошедшие не сложную регистрацию
    Показать сообщения:    

    Демон внутри через торрент
    Скачать бесплатно Демон внутри
    Демон внутри скачать торрент
    Демон внутри смотреть онлайн
    Cкачать фильм Демон внутри бесплатно
    Демон внутри скачать торрент в хорошем качестве
    Демон внутри смотреть онлайн бесплатно в хорошем качестве


    Вы не можете начинать темы
    Вы не можете отвечать на сообщения
    Вы не можете редактировать свои сообщения
    Вы не можете удалять свои сообщения
    Вы не можете голосовать в опросах
    Вы не можете прикреплять файлы к сообщениям
    Вы можете скачивать файлы