Ссылка на приватное зеркало нашего сайта всего за 1$. Внимание количество ограничено!!!

2 сезон

iTunes

1 сезон

1

iTunes

iTunes

iTunes

1 сезон

RePack

30

ИГРА 18+

pack

ВАЖНО

!!Акция!!

Alien_RageХит недели

RePack

MK11
pack

Забери бонус

RePack

jed

!!Акция!!

Alien_Rage

RePack

fifa19

RePack

Assassins Creed: Odyssey

RePack

NEED FOR SPEED™ PAYBACK

4 сезон

9 сезон

Бесстыжие 9 сезон

Все сериалы

все сериалы на PB.wtf

RePack

FAR CRY 5
  

Война на Диком Западе / How the West Was Won (Джон Форд, Генри Хэтэуэй, Джордж Маршалл, Ричард Торпе) [1962, вестерн, BDRip 1080p by msltel] MVO, DVO, AVO pb.wtf

Война на Диком Западе через торрент pb.wtf

Размер: 11.63 GB | Добавлен: 3 года 6 мес. назад | Торрент скачан:17 раз
Скачать  

19-04-2017 05:51 Война на Диком Западе Скачать торрент  

Название: Война на Диком Западе
Оригинальное название: How the West Was Won
Год выпуска: 1962
Страна: США
Жанр: вестерн
Продолжительность: 02:44:40
Перевод: профессиональный многоголосый, профессиональный двухголосый, авторский

Режиссёр: Джон Форд, Генри Хэтэуэй, Джордж Маршалл, Ричард Торпе

В ролях: Кэрролл Бэйкер, Ли Дж. Кобб, Генри Фонда, Кэролин Джонс, Карл Молден, Грегори Пек, Джордж Пеппард, Роберт Престон, Дебби Рейнолдс, Джеймс Стюарт, Эли Уоллах, Джон Уэйн, Ричард Уидмарк, Уолтер Бреннан, Дэвид Брайан

Описание: Повествование в этой кинокартине начинается с 1830-го года, с момента прибытия семьи переселенцев из Европы в Америку. Перед зрителями проходит жизнь первых поколений переселенцев, на плечи которых легло нелёгкое бремя освоения новых мест. Под руководством четырёх ведущих режиссёров США целое созвездие актёров воплотили на экране пятьдесят трудных и интересных лет жизни одной семьи переселенцев... Сценарий был основан на цикле статей, опубликованном в журнале Life. Писатель Луис Ламур на базе сценария написал одноимённый роман. Фильм стал одним из двух полнометражных, снятых с использованием панорамной технологии Cinerama.



Качество: BDRip 720p
Формат: MKV
Видео: MPEG-4 AVC, 7996 Кбит/с, 1920x660, 23,976 кадра/с
Аудио 1: русский, AC3, 640 kbps, 6 ch, 48 kHz [профессиональный многоголосый]
Аудио 2: русский, AC3, 192 kbps, 2 ch, 48 kHz [профессиональный двухголосый, DVD Magic]
Аудио 3: русский, AC3, 640 kbps, 6 ch, 48 kHz [авторский, Сергей Кузнецов]
Аудио 4: английский, AC3, 640 kbps, 6 ch, 48 kHz [оригинал]
Субтитры 1: русские
Субтитры 2: английские
Имеются неименованные главы/чаптеры.
Общее
Уникальный идентификатор : 206372872704826942032006966761284167477 (0x9B41F832CCC2C1559D0B92531AD3E735)
Полное имя : D:\Video\Война на Диком Западе.1962.BDRip.1080p by msltel.mkv
Формат : Matroska
Версия формата : Version 4 / Version 2
Размер файла : 11,6 Гбайт
Продолжительность : 2 ч. 44 м.
Общий поток : 10,1 Мбит/сек
Название фильма : Rip by msltel
Дата кодирования : UTC 2017-04-19 02:03:28
Программа кодирования : mkvmerge v8.2.0 ('World of Adventure') 64bit
Библиотека кодирования : libebml v1.3.1 + libmatroska v1.4.2

Видео
Идентификатор : 1
Формат : AVC
Формат/Информация : Advanced Video Codec
Профиль формата : High@L4.1
Параметр CABAC формата : Да
Параметр ReFrames формата : 4 кадра
Идентификатор кодека : V_MPEG4/ISO/AVC
Продолжительность : 2 ч. 44 м.
Битрейт : 7996 Кбит/сек
Ширина : 1920 пикселей
Высота : 660 пикселей
Соотношение сторон : 2,909
Режим частоты кадров : Постоянный
Частота кадров : 23,976 (24000/1001) кадра/сек
Цветовое пространство : YUV
Субдискретизация насыщенности : 4:2:0
Битовая глубина : 8 бит
Тип развёртки : Прогрессивная
Бит/(Пиксели*Кадры) : 0.263
Размер потока : 9,20 Гбайт (79%)
Библиотека кодирования : x264 core 146 r2538 121396c
Настройки программы : cabac=1 / ref=4 / deblock=1:-3:-2 / analyse=0x3:0x113 / me=umh / subme=11 / psy=1 / psy_rd=1.00:0.15 / mixed_ref=1 / me_range=32 / chroma_me=1 / trellis=2 / 8x8dct=1 / cqm=0 / deadzone=21,11 / fast_pskip=0 / chroma_qp_offset=-3 / threads=6 / lookahead_threads=1 / sliced_threads=0 / nr=0 / decimate=1 / interlaced=0 / bluray_compat=0 / constrained_intra=0 / bframes=7 / b_pyramid=2 / b_adapt=2 / b_bias=0 / direct=1 / weightb=1 / open_gop=0 / weightp=2 / keyint=240 / keyint_min=23 / scenecut=40 / intra_refresh=0 / rc_lookahead=40 / rc=crf / mbtree=0 / crf=18.2 / qcomp=0.60 / qpmin=0 / qpmax=69 / qpstep=4 / vbv_maxrate=62500 / vbv_bufsize=78125 / crf_max=0.0 / nal_hrd=none / filler=0 / ip_ratio=1.40 / pb_ratio=1.30 / aq=1:1.00
Язык : English
Default : Да
Forced : Нет

Аудио #1
Идентификатор : 2
Формат : AC-3
Формат/Информация : Audio Coding 3
Параметр Endianness формата : Big
Идентификатор кодека : A_AC3
Продолжительность : 2 ч. 44 м.
Вид битрейта : Постоянный
Битрейт : 640 Кбит/сек
Каналы : 6 каналов
Расположение каналов : Front: L C R, Side: L R, LFE
Частота : 48,0 КГц
Частота кадров : 31,250 кадров/сек (1536 spf)
Битовая глубина : 16 бит
Метод сжатия : С потерями
Размер потока : 754 Мбайт (6%)
Заголовок : MVO
Язык : Russian
ServiceKind/String : Complete Main
Default : Да
Forced : Нет

Аудио #2
Идентификатор : 3
Формат : AC-3
Формат/Информация : Audio Coding 3
Параметр Endianness формата : Big
Идентификатор кодека : A_AC3
Продолжительность : 2 ч. 44 м.
Вид битрейта : Постоянный
Битрейт : 192 Кбит/сек
Каналы : 2 канала
Расположение каналов : Front: L R
Частота : 48,0 КГц
Частота кадров : 31,250 кадров/сек (1536 spf)
Битовая глубина : 16 бит
Метод сжатия : С потерями
Размер потока : 226 Мбайт (2%)
Заголовок : DVO (DVD Magic)
Язык : Russian
ServiceKind/String : Complete Main
Default : Нет
Forced : Нет

Аудио #3
Идентификатор : 4
Формат : AC-3
Формат/Информация : Audio Coding 3
Параметр Endianness формата : Big
Идентификатор кодека : A_AC3
Продолжительность : 2 ч. 44 м.
Вид битрейта : Постоянный
Битрейт : 640 Кбит/сек
Каналы : 6 каналов
Расположение каналов : Front: L C R, Side: L R, LFE
Частота : 48,0 КГц
Частота кадров : 31,250 кадров/сек (1536 spf)
Битовая глубина : 16 бит
Метод сжатия : С потерями
Размер потока : 754 Мбайт (6%)
Заголовок : AVO (Сергей Кузнецов)
Язык : Russian
ServiceKind/String : Complete Main
Default : Нет
Forced : Нет

Аудио #4
Идентификатор : 5
Формат : AC-3
Формат/Информация : Audio Coding 3
Параметр Endianness формата : Big
Идентификатор кодека : A_AC3
Продолжительность : 2 ч. 44 м.
Вид битрейта : Постоянный
Битрейт : 640 Кбит/сек
Каналы : 6 каналов
Расположение каналов : Front: L C R, Side: L R, LFE
Частота : 48,0 КГц
Частота кадров : 31,250 кадров/сек (1536 spf)
Битовая глубина : 16 бит
Метод сжатия : С потерями
Размер потока : 754 Мбайт (6%)
Заголовок : original
Язык : English
ServiceKind/String : Complete Main
Default : Нет
Forced : Нет

Текст #1
Идентификатор : 6
Формат : UTF-8
Идентификатор кодека : S_TEXT/UTF8
Идентификатор кодека/Информация : UTF-8 Plain Text
Продолжительность : 2 ч. 32 м.
Битрейт : 73 бит/сек
ElementCount : 1583
Размер потока : 81,8 Кбайт (0%)
Заголовок : русские
Язык : Russian
Default : Нет
Forced : Нет

Текст #2
Идентификатор : 7
Формат : UTF-8
Идентификатор кодека : S_TEXT/UTF8
Идентификатор кодека/Информация : UTF-8 Plain Text
Продолжительность : 2 ч. 32 м.
Битрейт : 59 бит/сек
ElementCount : 1579
Размер потока : 66,4 Кбайт (0%)
Заголовок : английские
Язык : English
Default : Нет
Forced : Нет

Меню
00:00:00.000 : :Chapter 01
00:04:32.272 : :Chapter 02
00:07:40.460 : :Chapter 03
00:11:00.993 : :Chapter 04
00:15:25.466 : :Chapter 05
00:19:51.857 : :Chapter 06
00:25:24.731 : :Chapter 07
00:27:54.005 : :Chapter 08
00:32:41.960 : :Chapter 09
00:38:38.107 : :Chapter 10
00:43:11.880 : :Chapter 11
00:48:17.019 : :Chapter 12
00:53:25.118 : :Chapter 13
00:58:11.654 : :Chapter 14
01:03:46.656 : :Chapter 15
01:05:48.611 : :Chapter 16
01:08:03.162 : :Chapter 17
01:12:48.489 : :Chapter 18
01:15:53.257 : :Chapter 19
01:16:58.238 : :Chapter 20
01:20:07.677 : :Chapter 21
01:24:03.705 : :Chapter 22
01:24:43.078 : :Chapter 23
01:29:24.776 : :Chapter 24
01:37:09.156 : :Chapter 25
01:42:06.954 : :Chapter 26
01:45:14.599 : :Chapter 27
01:50:59.319 : :Chapter 28
01:54:36.578 : :Chapter 29
01:58:44.867 : :Chapter 30
02:05:02.912 : :Chapter 31
02:10:19.102 : :Chapter 32
02:12:57.844 : :Chapter 33
02:16:14.124 : :Chapter 34
02:20:34.175 : :Chapter 35
02:25:26.092 : :Chapter 36
02:29:25.748 : :Chapter 37
02:33:48.594 : :Chapter 38
02:37:01.161 : :Chapter 39
02:39:00.656 : :Chapter 40
02:42:00.711 : :Chapter 41
02:44:40.412 : :Chapter 42
pb.wtf



Скачать Война на Диком Западе через торрент http://hostpic.gq/img/2017-04/18/lf5ucrguywyl7vwfxwqwismkr.jpg Скачать фильм Война на Диком Западе через торрент бесплантно в хорошем качестве Описание: Повествование в этой кинокартине начинается с 1830-го года, с момента прибытия семьи переселенцев из Европы в Америку. Перед ... 10 10 2
Info! Золотая раздача, скачанное не засчитывается.
Торрент: Зарегистрирован [2017-04-19 05:51] · скачан: 17 раз
Статус: √ проверено
Размер: 11.63 GB
Как cкачать? Как скачать Война на Диком Западе через торрент | qTorrent

% Раздел Тема Автор DL S | L
Фильмы [HD 720p, 1080p] (Хороший звук DUB, MVO) [ 5.56 GB ] Война на Диком Западе / How the West Was Won [1962 BDRip 720p by msltel] MVO DVO AVO msltel Скачать
1 | 0

28-11-2019 20:33  

Отключить всю рекламу на сайте

19-04-2017 06:01 Война на Диком Западе Скачать торрент  

бюджет $15 000 000
сборы в США $76 729

Как видим, пендосам не очень интересно смотреть про историю своей страныpb.wtf



    Дорогой пользователь! Огромная просьба, поблагодарите релизера, оцените раздачу и оставьте свои комментарий, если Вы скачали Война на Диком Западе через торрент бесплатно! Внесите свою лепту в развитие PiratBit!
    Комментировать посты могут только пользователи прошедшие не сложную регистрацию
    Показать сообщения:    

    Война на Диком Западе через торрент
    Скачать бесплатно Война на Диком Западе
    Война на Диком Западе скачать торрент
    Война на Диком Западе смотреть онлайн
    Cкачать фильм Война на Диком Западе бесплатно
    Война на Диком Западе скачать торрент в хорошем качестве
    Война на Диком Западе смотреть онлайн бесплатно в хорошем качестве


    Вы не можете начинать темы
    Вы не можете отвечать на сообщения
    Вы не можете редактировать свои сообщения
    Вы не можете удалять свои сообщения
    Вы не можете голосовать в опросах
    Вы не можете прикреплять файлы к сообщениям
    Вы можете скачивать файлы