новый адрес
Ссылка на приватное зеркало всего за 1$. Внимание количество ограничено!!!

iTunes

1+1

iTunes

мы

iTunes

1

iTunes

Чернобыль

iTunes

Ральф против интернета

Лицензия

ПШазам

Лицензия

Оно 2

Лицензия

30
pack

Вам бонус

ВАЖНО

!!Акция!!

Alien_RageХит недели

RePack

Resident Evil 21

ИГРА 18+

pack

RePack

jed

!!Акция!!

Alien_Rage

RePack

fifa19

RePack

Assassins Creed: Odyssey

RePack

NEED FOR SPEED™ PAYBACK

3 сезон

9 сезон

Бесстыжие 9 сезон

Все сериалы

все сериалы на PB.wtf

RePack

FAR CRY 5
Ребята, катастрофически не хватает 1900р. для оплаты серверов за Октябрь (всвязи с блокировками трафик упал в 3 раза), 1-2р., выручайте.
  

Волынь / Wolyn / Wołyń / Hatred (Войчех Смажовский) [2016 г., военная драма, HDRip-AVC] VO (Михаил Чадов) pb.wtf

Волынь через торрент pb.wtf

Размер: 2.9 GB | Добавлен: 2 года 7 мес. назад | Торрент скачан:314 раз
Скачать  

19-04-2017 18:16 Волынь Скачать торрент  

Волынь / Wolyn / Wołyń / Hatred
Год выпуска: 2016
Страна: Польша
Жанр: военная драма
Продолжительность: 02:28:56
Перевод: Одноголосый закадровый (Михаил Чадов)
Субтитры: русские (на песни); русские полные; английские (полные); польские (форсированные); украинские (форсированные)

Режиссер: Войчех Смажовский / Wojciech Smarzowski

Бюджет: PLN 10 000 000
Премьера в мире: 23 сентября 2016

rating

В ролях: Михалина Лабач, Аркадиуш Якубик, Василий Василик, Адриан Заремба, Изабела Куна, Яцек Брацяк, Мария Собоциньская, Александр Збаражский, Владимир Процюк, Александр Чешеров, Лех Дыблик, Роман Скоровский, Захарьяш Мушиньский

Описание: События в фильме начинаются в летние месяцы 1939 года на территории Волыни, которая на тот период относилась к землям Польши. Между главной героиней, красивой польской девушкой Зосей, и украинским хлопцем возникает сильная любовь. Однако родители девушки отдают против её воли замуж за состоятельного вдовца. Скоро началась Вторая Мировая война и муж Зоси отправляется на фронт, оставив её со своими детьми. В то время, когда поляки терпят поражения от гитлеровской армии, в родном крае девушки происходят не менее чудовищные вещи. Украинские националисты начинают все чаще нападать на польское население, вырезая мирных жителей целыми селениями.

Доп. информация: В качестве основы для перевода использованы субтитры от Lem-а. Перевод исправлен на слух по польской и украинской речи и отредактирован.
Наложение чистого голоса выполнил Нордер.
Английские, польские и украинские субтитры - с официального издания blu-ray.

Качество: HDRip-AVC
Формат: MKV
Видео кодек: H.264
Аудио кодек: AC3
Видео: x264, 1152x480 (2.40:1), 1887 kbps, 24 fps, 0.142 bit/pixel
Аудио#1: Русский ac3, 48 kHz, 448 kbps, 5.1
Аудио#2: Польский ac3, 48 kHz, 448 kbps, 5.1
Сэмпл
скриншот  скриншот  скриншот  скриншот  





Общее
Уникальный идентификатор : 254003490412667883515169317641809829670 (0xBF174AF6050DB64F86850CEC81541F26)
Полное имя : E:\Wolyn-Волынь (Русифицирован).mkv
Формат : Matroska
Версия формата : Version 4 / Version 2
Размер файла : 2,90 Гбайт
Продолжительность : 2 ч. 28 м.
Общий поток : 2785 Кбит/сек
Дата кодирования : UTC 2017-04-16 01:17:53
Программа кодирования : mkvmerge v10.0.0 ('To Drown In You') 32bit
Библиотека кодирования : libebml v1.3.4 + libmatroska v1.4.5

Видео
Идентификатор : 1
Формат : AVC
Формат/Информация : Advanced Video Codec
Профиль формата : High@L3.1
Параметр CABAC формата : Да
Параметр ReFrames формата : 8 кадров
Идентификатор кодека : V_MPEG4/ISO/AVC
Продолжительность : 2 ч. 28 м.
Битрейт : 1887 Кбит/сек
Ширина : 1152 пикселя
Высота : 480 пикселей
Соотношение сторон : 2,40:1
Режим частоты кадров : Постоянный
Частота кадров : 24,000 кадра/сек
Цветовое пространство : YUV
Субдискретизация насыщенности : 4:2:0
Битовая глубина : 8 бит
Тип развёртки : Прогрессивная
Бит/(Пиксели*Кадры) : 0.142
Размер потока : 1,91 Гбайт (66%)
Библиотека кодирования : x264 core 130 r2273 b3065e6
Настройки программы : cabac=1 / ref=8 / deblock=0:-1:-1 / analyse=0x3:0x133 / me=umh / subme=10 / psy=1 / psy_rd=1.00:0.15 / mixed_ref=1 / me_range=24 / chroma_me=1 / trellis=2 / 8x8dct=1 / cqm=0 / deadzone=21,11 / fast_pskip=1 / chroma_qp_offset=-3 / threads=3 / lookahead_threads=1 / sliced_threads=0 / nr=0 / decimate=1 / interlaced=0 / bluray_compat=0 / constrained_intra=0 / bframes=8 / b_pyramid=2 / b_adapt=2 / b_bias=0 / direct=3 / weightb=1 / open_gop=0 / weightp=2 / keyint=250 / keyint_min=23 / scenecut=40 / intra_refresh=0 / rc_lookahead=60 / rc=2pass / mbtree=1 / bitrate=1887 / ratetol=1.0 / qcomp=0.60 / qpmin=0 / qpmax=69 / qpstep=4 / cplxblur=20.0 / qblur=0.5 / ip_ratio=1.40 / aq=1:1.00
Default : Да
Forced : Нет

Аудио #1
Идентификатор : 2
Формат : AC-3
Формат/Информация : Audio Coding 3
Параметр Endianness формата : Big
Идентификатор кодека : A_AC3
Продолжительность : 2 ч. 28 м.
Вид битрейта : Постоянный
Битрейт : 448 Кбит/сек
Каналы : 6 каналов
Расположение каналов : Front: L C R, Side: L R, LFE
Частота : 48,0 КГц
Частота кадров : 31,250 кадров/сек (1536 spf)
Битовая глубина : 16 бит
Метод сжатия : С потерями
Размер потока : 477 Мбайт (16%)
Язык : Russian
ServiceKind/String : Complete Main
Default : Да
Forced : Нет

Аудио #2
Идентификатор : 3
Формат : AC-3
Формат/Информация : Audio Coding 3
Параметр Endianness формата : Big
Идентификатор кодека : A_AC3
Продолжительность : 2 ч. 28 м.
Вид битрейта : Постоянный
Битрейт : 448 Кбит/сек
Каналы : 6 каналов
Расположение каналов : Front: L C R, Side: L R, LFE
Частота : 48,0 КГц
Частота кадров : 31,250 кадров/сек (1536 spf)
Битовая глубина : 16 бит
Метод сжатия : С потерями
Размер потока : 477 Мбайт (16%)
Язык : Polish
ServiceKind/String : Complete Main
Default : Нет
Forced : Нет

Текст #1
Идентификатор : 4
Формат : UTF-8
Идентификатор кодека : S_TEXT/UTF8
Идентификатор кодека/Информация : UTF-8 Plain Text
Язык : Russian
Default : Да
Forced : Нет

Текст #2
Идентификатор : 5
Формат : UTF-8
Идентификатор кодека : S_TEXT/UTF8
Идентификатор кодека/Информация : UTF-8 Plain Text
Язык : Russian
Default : Нет
Forced : Нет

Текст #3
Идентификатор : 6
Формат : UTF-8
Идентификатор кодека : S_TEXT/UTF8
Идентификатор кодека/Информация : UTF-8 Plain Text
Язык : English
Default : Нет
Forced : Нет

Текст #4
Идентификатор : 7
Формат : UTF-8
Идентификатор кодека : S_TEXT/UTF8
Идентификатор кодека/Информация : UTF-8 Plain Text
Язык : Polish
Default : Нет
Forced : Нет

Текст #5
Идентификатор : 8
Формат : UTF-8
Идентификатор кодека : S_TEXT/UTF8
Идентификатор кодека/Информация : UTF-8 Plain Text
Язык : Ukrainian
Default : Нет
Forced : Нет

Меню
00:00:00.000 : en:00:00:00.000
00:06:18.875 : en:00:06:18.875
00:14:05.417 : en:00:14:05.417
00:25:16.500 : en:00:25:16.500
00:30:17.083 : en:00:30:17.083
00:35:52.417 : en:00:35:52.417
00:43:38.250 : en:00:43:38.250
00:50:38.583 : en:00:50:38.583
00:57:40.708 : en:00:57:40.708
01:04:54.042 : en:01:04:54.042
01:12:39.375 : en:01:12:39.375
01:19:16.000 : en:01:19:16.000
01:27:29.375 : en:01:27:29.375
01:36:05.417 : en:01:36:05.417
01:42:47.333 : en:01:42:47.333
01:48:52.667 : en:01:48:52.667
01:56:23.875 : en:01:56:23.875
02:01:06.833 : en:02:01:06.833
02:11:13.125 : en:02:11:13.125
02:18:50.500 : en:02:18:50.500

pb.wtf



Скачать Волынь через торрент http://pic1.kartinco.top/images/11/ny8p9.jpg Скачать фильм Волынь через торрент бесплантно в хорошем качестве Описание: События в фильме начинаются в летние месяцы 1939 года на территории Волыни, которая на тот период относилась к землям Польши. ... 8.5 10 30
Торрент: Зарегистрирован [2017-04-19 18:16] · скачан: 314 раз
Статус: √ проверено
Размер: 2.9 GB
Как cкачать? Как скачать Волынь через торрент | qTorrent


>> Регистрируемся здесь <<






Отзывы и комментарии о схеме читаем и пишем здесь: ---> Отзывы и комментарии о схеме

Новые благодарочки в телеграм довольных пользователей:
скриншот   скриншот   скриншот   скриншот   скриншот
    Дорогой пользователь! Огромная просьба, поблагодарите релизера, оцените раздачу и оставьте свои комментарий, если Вы скачали Волынь через торрент бесплатно! Внесите свою лепту в развитие PiratBit!
    Комментировать посты могут только пользователи прошедшие не сложную регистрацию
    Показать сообщения:    

    Волынь через торрент
    Скачать бесплатно Волынь
    Волынь скачать торрент
    Волынь смотреть онлайн
    Cкачать фильм Волынь бесплатно
    Волынь скачать торрент в хорошем качестве
    Волынь смотреть онлайн бесплатно в хорошем качестве


    Вы не можете начинать темы
    Вы не можете отвечать на сообщения
    Вы не можете редактировать свои сообщения
    Вы не можете удалять свои сообщения
    Вы не можете голосовать в опросах
    Вы не можете прикреплять файлы к сообщениям
    Вы можете скачивать файлы