Ссылка на приватное зеркало нашего сайта всего за 1$. Внимание количество ограничено!!!

2 сезон

iTunes

1 сезон

1

iTunes

iTunes

iTunes

1 сезон

RePack

30

ИГРА 18+

pack

ВАЖНО

!!Акция!!

Alien_RageХит недели

RePack

MK11
pack

Забери бонус

RePack

jed

!!Акция!!

Alien_Rage

RePack

fifa19

RePack

Assassins Creed: Odyssey

RePack

NEED FOR SPEED™ PAYBACK

4 сезон

9 сезон

Бесстыжие 9 сезон

Все сериалы

все сериалы на PB.wtf

RePack

FAR CRY 5
  

Реквием по мечте / Requiem for a Dream (Даррен Аронофски) [2000, драма, BDRip 720p] [Режиссерская версия] DUB pb.wtf

Реквием по мечте через торрент pb.wtf

Размер: 6.56 GB | Добавлен: 3 года 6 мес. назад | Торрент скачан:267 раз
Скачать  

19-04-2017 18:41 Реквием по мечте Скачать торрент  

Реквием по мечте / Requiem for a Dream[Режиссерская версия / Director's Cut]
Год выпуска: 2000
Страна: США
Жанр: драма

Продолжительность: 01:41:25
Перевод: Дубляж (West Video)
Субтитры: русские (Licence West Video), русские (Tycoon), английские
Режиссер: Даррен Аронофски
В ролях:

Джаред Лето (Harry Goldfarb), Дженнифер Коннелли (Marion Silver), Марлон Уайанс (Tyrone C. Love), Эллен Бёрстин (Sara Goldfarb), Кристофер МакДональд (Tappy Tibbons), Кит Дэвид (Big Tim), Марк Марголис (Mr. Rabinowitz), Луиза Лэссер (Ada), Марсия Джин Кертц (Rae), Джанет Сарно (Mrs. Pearlman), Сюзанн Шеперд (Mrs. Scarlini), Джоэнн Гордон (Mrs. Ovadia)
Описание:
Каждый из главных героев фильма стремился к своей заветной мечте. Сара Голдфарб мечтала сняться в известном телешоу, ее сын Гарольд со своим другом Тайроном - сказочно разбогатеть, подруга Гарольда Мэрион грезила о собственном модном магазине, но на их пути были всяческие препятствия. События фильма разворачиваются стремительно, герои погрязли в наркотиках. Мечты по-прежнему остаются недостижимыми, а жизни героев рушатся безвозвратно.
Рейтинг:

MPAA: R - Лицам до 17 лет обязательно присутствие взрослого
Качество: BDRip 720p
Формат: MKV
Видео: AVC, 1280x692 (1.85:1), 7363 kbps, 23,976 fps, 0,347 bpp
Аудио №1: русский / AC3 / 5.1 / 48 kHz / 384 kbps / |Дубляж|
Аудио №2: английский / DTS / 5.1 / 48 kHz / 1509 kbps / 24 bit
Навигация по главам: есть
General
Unique ID : 200183919791127917200290695924770315746 (0x969A0542D57B59B5B2E5472DF5D69DE2)
Complete name : E:\Requiem for a Dream.2000.BD.Rip.720p.h264.Rus.Eng.mkv
Format : Matroska
Format version : Version 2
File size : 6.56 GiB
Duration : 1 h 41 min
Overall bit rate : 9 258 kb/s
Encoded date : UTC 2009-09-19 10:33:10
Writing application : mkvmerge v2.9.8 ('C'est le bon') built on Aug 13 2009 12:49:06
Writing library : libebml v0.7.7 + libmatroska v0.8.1

Video
ID : 1
Format : AVC
Format/Info : Advanced Video Codec
Format profile : High@L4.1
Format settings, CABAC : Yes
Format settings, ReFrames : 9 frames
Codec ID : V_MPEG4/ISO/AVC
Duration : 1 h 41 min
Bit rate : 7 363 kb/s
Width : 1 280 pixels
Height : 692 pixels
Display aspect ratio : 1.85:1
Frame rate mode : Constant
Frame rate : 23.976 FPS
Color space : YUV
Chroma subsampling : 4:2:0
Bit depth : 8 bits
Scan type : Progressive
Bits/(Pixel*Frame) : 0.347
Stream size : 5.09 GiB (78%)
Writing library : x264 core 75 r1259M dd026f2
Encoding settings : cabac=1 / ref=9 / deblock=1:-3:-3 / analyse=0x3:0x113 / me=umh / subme=10 / psy=1 / psy_rd=1.0:0.0 / mixed_ref=1 / me_range=32 / chroma_me=1 / trellis=2 / 8x8dct=1 / cqm=0 / deadzone=21,11 / chroma_qp_offset=-2 / threads=6 / nr=0 / decimate=1 / mbaff=0 / bframes=3 / b_pyramid=0 / b_adapt=2 / b_bias=0 / direct=3 / wpredb=1 / keyint=250 / keyint_min=25 / scenecut=40 / rc_lookahead=30 / rc=2pass / mbtree=1 / bitrate=7363 / ratetol=1.0 / qcomp=0.60 / qpmin=10 / qpmax=51 / qpstep=4 / cplxblur=20.0 / qblur=0.5 / ip_ratio=1.40 / aq=1:0.80
Language : English
Default : No
Forced : No

Audio #1
ID : 2
Format : AC-3
Format/Info : Audio Coding 3
Mode extension : CM (complete main)
Format settings, Endianness : Big
Codec ID : A_AC3
Duration : 1 h 41 min
Bit rate mode : Constant
Bit rate : 384 kb/s
Channel(s) : 6 channels
Channel positions : Front: L C R, Side: L R, LFE
Sampling rate : 48.0 kHz
Frame rate : 31.250 FPS (1536 spf)
Compression mode : Lossy
Stream size : 279 MiB (4%)
Title : Dublyazh West Video AC3 5.1 384 kbps
Language : Russian
Default : Yes
Forced : No

Audio #2
ID : 3
Format : DTS
Format/Info : Digital Theater Systems
Mode : 16
Format settings, Endianness : Big
Codec ID : A_DTS
Duration : 1 h 41 min
Bit rate mode : Constant
Bit rate : 1 509 kb/s
Channel(s) : 6 channels
Channel positions : Front: L C R, Side: L R, LFE
Sampling rate : 48.0 kHz
Frame rate : 93.750 FPS (512 spf)
Bit depth : 24 bits
Compression mode : Lossy
Stream size : 1.07 GiB (16%)
Title : DTS 5.1 1536 kbps
Language : English
Default : No
Forced : No

Text #1
ID : 4
Format : UTF-8
Codec ID : S_TEXT/UTF8
Codec ID/Info : UTF-8 Plain Text
Title : Licence West Video
Language : Russian
Default : No
Forced : No

Text #2
ID : 5
Format : UTF-8
Codec ID : S_TEXT/UTF8
Codec ID/Info : UTF-8 Plain Text
Title : Tycoon
Language : Russian
Default : No
Forced : No

Text #3
ID : 6
Format : UTF-8
Codec ID : S_TEXT/UTF8
Codec ID/Info : UTF-8 Plain Text
Language : English
Default : No
Forced : No

Menu
00:00:00.000 : en:00:00:00.000
00:00:00.792 : en:00:00:00.792
00:00:30.572 : en:00:00:30.572
00:05:32.207 : en:00:05:32.207
00:09:08.423 : en:00:09:08.423
00:14:02.675 : en:00:14:02.675
00:19:02.850 : en:00:19:02.850
00:23:36.832 : en:00:23:36.832
00:27:35.112 : en:00:27:35.112
00:29:48.745 : en:00:29:48.745
00:32:48.758 : en:00:32:48.758
00:37:18.695 : en:00:37:18.695
00:49:26.005 : en:00:49:26.005
00:56:26.425 : en:00:56:26.425
01:06:07.213 : en:01:06:07.213
01:13:25.985 : en:01:13:25.985
01:21:03.025 : en:01:21:03.025
01:29:19.354 : en:01:29:19.354
pb.wtf



Скачать Реквием по мечте через торрент http://i1.imageban.ru/out/2017/04/19/53d5ba4ca05d39dd5ce0da7f29c8bda7.jpg Скачать фильм Реквием по мечте через торрент бесплантно в хорошем качестве Описание: Каждый из главных героев фильма стремился к своей заветной мечте. Сара Голдфарб мечтала сняться в известном телешоу, ее сын ... 10 10 7
Info! Золотая раздача, скачанное не засчитывается.
Торрент: Зарегистрирован [2017-04-19 18:41] · скачан: 267 раз
Статус: √ проверено
Размер: 6.56 GB
Как cкачать? Как скачать Реквием по мечте через торрент | qTorrent

% Раздел Тема Автор DL S | L
Ultra HD (UHD: 2K, 4K, 8K) — видео сверхвысокой чёткости [ 54.17 GB ] Реквием по мечте / Requiem for a dream [2000 UHD BDRemux 2160p] DUB+MVO+AVO bober100 Скачать
3 | 0
Фильмы до 2000 г. [ 4.25 GB ] Реквием по мечте / Requiem for a dream [2000 BDRip-AVC] [Режиссерская версия] DUB+MVO +AVO+VO bober100 Скачать
3 | 0
Фильмы [HD 720p, 1080p] (Хороший звук DUB, MVO) [ 11.37 GB ] Реквием по мечте / Requiem for a Dream [2000 BDRip 1080p от _denis_100] DUB MVO AVO _denis_100 Скачать
1 | 2

28-11-2019 20:33  

Отключить всю рекламу на сайте

19-04-2017 19:13 Реквием по мечте Скачать торрент  

Вот бы еще писать чем режиссерская отличается от основной.pb.wtf



19-04-2017 19:51 Реквием по мечте Скачать торрент  

RomaXP писал(а):

Вот бы еще писать чем режиссерская отличается от основной.

вот полностью поддерживаю высказывания предыдущего оратора
пацаны стали богатыми, главному герою не ампутировали руку, а подружка открыла модный бутик????pb.wtf



    Дорогой пользователь! Огромная просьба, поблагодарите релизера, оцените раздачу и оставьте свои комментарий, если Вы скачали Реквием по мечте через торрент бесплатно! Внесите свою лепту в развитие PiratBit!
    Комментировать посты могут только пользователи прошедшие не сложную регистрацию
    Показать сообщения:    

    Реквием по мечте через торрент
    Скачать бесплатно Реквием по мечте
    Реквием по мечте скачать торрент
    Реквием по мечте смотреть онлайн
    Cкачать фильм Реквием по мечте бесплатно
    Реквием по мечте скачать торрент в хорошем качестве
    Реквием по мечте смотреть онлайн бесплатно в хорошем качестве


    Вы не можете начинать темы
    Вы не можете отвечать на сообщения
    Вы не можете редактировать свои сообщения
    Вы не можете удалять свои сообщения
    Вы не можете голосовать в опросах
    Вы не можете прикреплять файлы к сообщениям
    Вы можете скачивать файлы