Ссылка на приватное зеркало нашего сайта всего за 1$. Внимание количество ограничено!!!

2 сезон

iTunes

1 сезон

1

iTunes

iTunes

iTunes

1 сезон

RePack

30

ИГРА 18+

pack

ВАЖНО

!!Акция!!

Alien_RageХит недели

RePack

MK11
pack

Забери бонус

RePack

jed

!!Акция!!

Alien_Rage

RePack

fifa19

RePack

Assassins Creed: Odyssey

RePack

NEED FOR SPEED™ PAYBACK

4 сезон

9 сезон

Бесстыжие 9 сезон

Все сериалы

все сериалы на PB.wtf

RePack

FAR CRY 5
  

Свидетельство о рождении / 1-8 серии из 8 (Елена Цыплакова) [2017, мелодрама, криминал, HDTVRip 720p] pb.wtf

Свидетельство о рождении через торрент pb.wtf

Размер: 10.24 GB | Добавлен: 3 года 6 мес. назад | Торрент скачан:42 раза
Скачать  

19-04-2017 18:50 Свидетельство о рождении Скачать торрент  

Свидетельство о рождении
Год выпуска: 2017
Страна: Россия
Жанр: мелодрама, криминал
Всего серий: 8
Продолжительность: 8 x ~ 00:50:00
Субтитры: отсутствуют

Режиссер: Елена Цыплакова



В ролях:

Елена Аросьева, Илья Носков, Елена Цыплакова, Данила Дунаев, Максим Радугин, Иван Шабалтас, Надежда Бахтина, Геннадий Смирнов, Стэфания Заровная

Описание:

Ольга (Елена Аросева) – музейный работник в провинциальном городе. Четыре года назад пропала ее годовалая дочь Юля. Муж Ольги Игорь (Данила Дунаев) спасается от депрессии связями на стороне, Ольга ушла с головой в работу. Узнав, что следователь закрывает дело о об исчезновении Юли, Игорь предлагает жене смириться и родить еще одного ребенка. Но Ольга отказывается. Она верит, что девочка жива. Однажды в музей заходят приезжие из Москвы, среди них Евгений (Максим Радугин). Между Ольгой и Евгением вспыхивает роман, о котором вскоре становится известно Игорю: неизвестный доброжелатель пересылает ему любовную переписку. Взбешенный Игорь насилует жену. Перепуганная Ольга сбегает от мужа и приезжает в Москву к Евгению. Там она узнает жестокую правду: Евгений никогда не воспринимал их отношения всерьез, он женат и у него двое сыновей. Во время тяжелого объяснения Евгений и Ольга попадают в аварию. Евгений погибает на месте, Ольга приходит в себя в больнице и узнает, что беременна. Чтобы спрятаться от мужа Ольга принимает приглашение родителей Евгения – Анны (Елена Цыплакова) и Константина (Иван Шабалтас) пожить с ними. Пожилая пара проникается сочувствием к Ольге, которая носит их внука. А вот вдова Евгения – Майя и его брат Вадим (Илья Носков) не разделяют их чувств. Майя ненавидит любовницу мужа, которая теперь имеет право претендовать на наследство. А Вадим и вовсе обвиняет Ольгу в смерти брата…

Качество: HDTVRip 720p
Формат: MKV
Видео кодек: H.264
Аудио кодек: AC3

Видео: 1280x720 (16:9), 25 fps, AVC Н.264 High@L4.1 ~3500 kbps avg, 0.152 bit/pixel
Аудио#1: 48 kHz, АС3, 2 ch, (Front: L R) ~192.00 kbps avg
скриншот   скриншот   скриншот   скриншот  

Общее
Уникальный идентификатор : 209694313620110708784163484727387366533 (0x9DC1A7E0FE31DECBA5EC1C1BF0E02485)
Полное имя : D:\Раздачи\Svidetelstvo.o.rozhdenii.2017.HDTVRip.(720p).DenSBK\Svidetelstvo.o.rozhdenii.(1.seriya.iz.8).2017.HDTVRip.(720p).DenSBK.mkv
Формат : Matroska
Версия формата : Version 4 / Version 2
Размер файла : 1,24 Гбайт
Продолжительность : 48 м. 2 с.
Общий поток : 3694 Кбит/сек
Дата кодирования : UTC 2017-04-07 08:26:25
Программа кодирования : mkvmerge v10.0.0 ('To Drown In You') 64bit
Библиотека кодирования : libebml v1.3.4 + libmatroska v1.4.5

Видео
Идентификатор : 1
Формат : AVC
Формат/Информация : Advanced Video Codec
Профиль формата : High@L4.1
Параметр CABAC формата : Да
Параметр ReFrames формата : 9 кадров
Идентификатор кодека : V_MPEG4/ISO/AVC
Продолжительность : 48 м. 2 с.
Битрейт : 3500 Кбит/сек
Ширина : 1280 пикселей
Высота : 720 пикселей
Соотношение сторон : 16:9
Режим частоты кадров : Постоянный
Частота кадров : 25,000 кадров/сек
Цветовое пространство : YUV
Субдискретизация насыщенности : 4:2:0
Битовая глубина : 8 бит
Тип развёртки : Прогрессивная
Бит/(Пиксели*Кадры) : 0.152
Размер потока : 1,17 Гбайт (95%)
Библиотека кодирования : x264 core 148 r2638 7599210
Настройки программы : cabac=1 / ref=9 / deblock=1:-3:-3 / analyse=0x3:0x113 / me=hex / subme=4 / psy=1 / psy_rd=1.00:0.00 / mixed_ref=0 / me_range=16 / chroma_me=1 / trellis=1 / 8x8dct=1 / cqm=0 / deadzone=21,11 / fast_pskip=1 / chroma_qp_offset=0 / threads=3 / lookahead_threads=1 / sliced_threads=0 / nr=0 / decimate=1 / interlaced=0 / bluray_compat=0 / constrained_intra=0 / bframes=3 / b_pyramid=2 / b_adapt=2 / b_bias=0 / direct=1 / weightb=1 / open_gop=0 / weightp=1 / keyint=250 / keyint_min=25 / scenecut=40 / intra_refresh=0 / rc_lookahead=20 / rc=2pass / mbtree=1 / bitrate=3500 / ratetol=1.0 / qcomp=0.60 / qpmin=10 / qpmax=51 / qpstep=4 / cplxblur=20.0 / qblur=0.5 / vbv_maxrate=25000 / vbv_bufsize=25000 / nal_hrd=none / filler=0 / ip_ratio=1.40 / aq=1:1.00
Default : Да
Forced : Нет

Аудио
Идентификатор : 2
Формат : AC-3
Формат/Информация : Audio Coding 3
Расширение режима : CM (complete main)
Параметр Endianness формата : Big
Идентификатор кодека : A_AC3
Продолжительность : 48 м. 2 с.
Вид битрейта : Постоянный
Битрейт : 192 Кбит/сек
Каналы : 2 канала
Расположение каналов : Front: L R
Частота : 48,0 КГц
Частота кадров : 31,250 кадров/сек (1536 spf)
Битовая глубина : 16 бит
Метод сжатия : С потерями
Размер потока : 66,0 Мбайт (5%)
Default : Да
Forced : Нет

pb.wtf



Скачать Свидетельство о рождении через торрент http://s09.radikal.ru/i182/1704/82/024431463b56.jpg Скачать фильм Свидетельство о рождении через торрент бесплантно в хорошем качестве Описание: Ольга (Елена Аросева) – музейный работник в провинциальном городе. Четыре года назад пропала ее годовалая дочь Юля. Муж Ольги ... 10 10 3
Info! Серебряная раздача, засчитывается только 50% скачанного.
Торрент: Зарегистрирован [2017-04-19 18:50] · скачан: 42 раз
Статус: √ проверено
Размер: 10.24 GB
Как cкачать? Как скачать Свидетельство о рождении через торрент | qTorrent

% Раздел Тема Автор DL S | L
Наши сериалы [ 5.28 GB ] Свидетельство о рождении / Серия 1- 8 из 8 [2017 Мело SATRip] oleg8 Скачать
1 | 0

28-11-2019 20:33  

Отключить всю рекламу на сайте

    Дорогой пользователь! Огромная просьба, поблагодарите релизера, оцените раздачу и оставьте свои комментарий, если Вы скачали Свидетельство о рождении через торрент бесплатно! Внесите свою лепту в развитие PiratBit!
    Комментировать посты могут только пользователи прошедшие не сложную регистрацию
    Показать сообщения:    

    Свидетельство о рождении через торрент
    Скачать бесплатно Свидетельство о рождении
    Свидетельство о рождении скачать торрент
    Свидетельство о рождении смотреть онлайн
    Cкачать фильм Свидетельство о рождении бесплатно
    Свидетельство о рождении скачать торрент в хорошем качестве
    Свидетельство о рождении смотреть онлайн бесплатно в хорошем качестве


    Вы не можете начинать темы
    Вы не можете отвечать на сообщения
    Вы не можете редактировать свои сообщения
    Вы не можете удалять свои сообщения
    Вы не можете голосовать в опросах
    Вы не можете прикреплять файлы к сообщениям
    Вы можете скачивать файлы