Ссылка на приватное зеркало нашего сайта всего за 1$. Внимание количество ограничено!!!

2 сезон

iTunes

1 сезон

1

2 сезон

2 сезон

iTunes

1 сезон

RePack

30

Новинка

ВАЖНО

ИГРА 18+

pack

RePack

MK11
pack

Забери бонус

RePack

jed

!!Акция!!

Alien_Rage

RePack

fifa19

RePack

Assassins Creed: Odyssey

RePack

NEED FOR SPEED™ PAYBACK

4 сезон

9 сезон

Бесстыжие 9 сезон

Все сериалы

все сериалы на PB.wtf

RePack

FAR CRY 5
  

Хорошая борьба / The Good Fight / 1 сезон / 1-10 серии из 10 (Аллан Аркуш, Марта Каннингэм) [2017, драма, WEB-DLRip] MVO [Амедиа] pb.wtf

Хорошая борьба через торрент pb.wtf

Размер: 5.48 GB | Добавлен: 3 года 7 мес. назад | Торрент скачан:35 раз
Скачать  

19-04-2017 19:31 Хорошая борьба Скачать торрент  

Хорошая борьба / The Good FightГод выпуска: 2017
Страна: США
Жанр: драма
Всего серий: 10
Продолжительность: 10 х ~ 00:45:30
Перевод: Профессиональный многоголосый -
Субтитры: русские (амедиа), английские

Режиссер: Аллан Аркуш, Марта Каннингэм, Брук Кеннеди

rating

В ролях:

Кристин Барански, Джастин Барта, Каш Джамбо, Роуз Лесли, Делрой Линдо, Сара Стил, Эрика Н. Тэйзел

Описание:

В результате раскрытия ряда незаконных сделок Диана Локхарт теряет работу и сбережения, а её крестница, молодой адвокат Майя, — репутацию. Спустя некоторое время Диана становится партнёром одной из крупнейших юридических фирм Чикаго.

Качество: WEB-DLRip
Формат: AVI
Видео кодек: XviD
Аудио кодек: MP3

Видео: 704x352 (2.00:1), 25 fps, XviD build 73 ~1390 kbps avg, 0.225 bit/pixel
Аудио#1: Rus: 48 kHz, MPEG Layer 3, 2 ch, ~128.00 kbps avg
Аудио#2: Eng: 48 kHz, MPEG Layer 3, 2 ch, ~128.00 kbps avg
скриншот   скриншот   скриншот   скриншот  

General
Complete name : F:FilmsThe Good Fight (Season 01)The.Good.Fight.S01E01.XviD.Amedia.(qqss44).avi
Format : AVI
Format/Info : Audio Video Interleave
File size : 551 MiB
Duration : 46 min 32 s
Overall bit rate : 1 654 kb/s
Writing application : VirtualDubMod 1.5.10.3 | www.virtualdub-fr.org || (build 2550/release)
Writing library : VirtualDubMod build 2550/release

Video
ID : 0
Format : MPEG-4 Visual
Format profile : Advanced Simple@L5
Format settings, BVOP : 2
Format settings, QPel : No
Format settings, GMC : No warppoints
Format settings, Matrix : Custom
Codec ID : XVID
Codec ID/Hint : XviD
Duration : 46 min 32 s
Bit rate : 1 384 kb/s
Width : 704 pixels
Height : 352 pixels
Display aspect ratio : 2.000
Frame rate : 25.000 FPS
Color space : YUV
Chroma subsampling : 4:2:0
Bit depth : 8 bits
Scan type : Progressive
Compression mode : Lossy
Bits/(Pixel*Frame) : 0.223
Stream size : 461 MiB (84%)
Writing library : XviD 73

Audio #1
ID : 1
Format : MPEG Audio
Format version : Version 1
Format profile : Layer 3
Mode : Joint stereo
Mode extension : MS Stereo
Codec ID : 55
Codec ID/Hint : MP3
Duration : 46 min 32 s
Bit rate mode : Constant
Bit rate : 128 kb/s
Channel(s) : 2 channels
Sampling rate : 48.0 kHz
Compression mode : Lossy
Stream size : 42.6 MiB (8%)
Alignment : Aligned on interleaves
Interleave, duration : 40 ms (1.00 video frame)
Interleave, preload duratio : 504 ms

Audio #2
ID : 2
Format : MPEG Audio
Format version : Version 1
Format profile : Layer 3
Mode : Joint stereo
Mode extension : MS Stereo
Codec ID : 55
Codec ID/Hint : MP3
Duration : 46 min 32 s
Bit rate mode : Constant
Bit rate : 128 kb/s
Channel(s) : 2 channels
Sampling rate : 48.0 kHz
Compression mode : Lossy
Stream size : 42.6 MiB (8%)
Alignment : Aligned on interleaves
Interleave, duration : 40 ms (1.00 video frame)
Interleave, preload duratio : 504 ms

pb.wtf



Скачать Хорошая борьба через торрент http://s019.radikal.ru/i617/1704/c3/6df6dbff3af1.png Скачать фильм Хорошая борьба через торрент бесплантно в хорошем качестве Описание: В результате раскрытия ряда незаконных сделок Диана Локхарт теряет работу и сбережения, а её крестница, молодой адвокат Майя, — ... 9.4 10 5
Торрент: Зарегистрирован [2017-04-19 19:31] · скачан: 35 раз
Статус: √ проверено
Размер: 5.48 GB
Как cкачать? Как скачать Хорошая борьба через торрент | qTorrent

% Раздел Тема Автор DL S | L
Зарубежные сериалы [ 14.78 GB ] Хорошая борьба / Правое дело / The Good Fight / Сезон: 4 / Серии: 1-7 из 7 [2020 WEB-DL 1080p] MVO [NewStudio] bober100 Скачать
1 | 0
Зарубежные сериалы [ 13.53 GB ] Хорошая борьба / Правое дело / The Good Fight / Сезон: 4 / Серии: 1-7 из 7 [2020 WEB-DL 1080p] MVO [Jaskier] bober100 Скачать
1 | 0
Зарубежные сериалы [ 13.69 GB ] Хорошая борьба / Правое дело / The Good Fight / Сезон: 4 / Серии: 1-7 из 7 [2020 WEB-DL 1080p] MVO [SDI Media] bober100 Скачать
1 | 0
Зарубежные сериалы [ 11.63 GB ] Хорошая борьба / The Good Fight / Сезон: 3 / Серии: 1-10 из 10 [2019 WEBRip 720p] MVO [TVShows] bober100 Скачать
1 | 0
Зарубежные сериалы [ 24.2 GB ] Хорошая борьба / The Good Fight / Сезон: 3 / Серии: 1-10 из 10 [2019 WEBRip 1080p] MVO [TVShows] bober100 Скачать
1 | 0
Зарубежные сериалы [ 10.17 GB ] Хорошая борьба / Правое дело / The Good Fight / Сезон: 3 / Серии: 1-10 из 10 [2019 WEB-DL 720p] MVO [Jaskier] bober100 Скачать
1 | 0
Зарубежные сериалы [ 6.45 GB ] Хорошая борьба / Правое дело / The Good Fight / Сезон: 3 / Серии: 1-10 из 10 [2019 WEB-DLRip] MVO [Jaskier] bober100 Скачать
1 | 0

28-11-2019 20:33  

Отключить всю рекламу на сайте

    Дорогой пользователь! Огромная просьба, поблагодарите релизера, оцените раздачу и оставьте свои комментарий, если Вы скачали Хорошая борьба через торрент бесплатно! Внесите свою лепту в развитие PiratBit!
    Комментировать посты могут только пользователи прошедшие не сложную регистрацию
    Показать сообщения:    

    Хорошая борьба через торрент
    Скачать бесплатно Хорошая борьба
    Хорошая борьба скачать торрент
    Хорошая борьба смотреть онлайн
    Cкачать фильм Хорошая борьба бесплатно
    Хорошая борьба скачать торрент в хорошем качестве
    Хорошая борьба смотреть онлайн бесплатно в хорошем качестве


    Вы не можете начинать темы
    Вы не можете отвечать на сообщения
    Вы не можете редактировать свои сообщения
    Вы не можете удалять свои сообщения
    Вы не можете голосовать в опросах
    Вы не можете прикреплять файлы к сообщениям
    Вы можете скачивать файлы