1 сезон

3 сезон

iTunes

1

iTunes

MVO

iTunes

13

1 сезон

RePack

30

Deluxe

pack

Лицензия

ВАЖНО

ИГРА 18+

pack

RePack

MK11

RePack

jed

RePack

fifa19

RePack

RDR2

RePack

NEED FOR SPEED™ PAYBACK

4 сезон

9 сезон

Бесстыжие 9 сезон

Все сериалы

все сериалы на PB.wtf

RePack

FAR CRY 5

Anonymous, доброй ночи, мы катастрофически не успеваем собрать деньги на оплату серверов, помогите нам пожалуйста 5,10,15р., для нас важна любая помощь . В качестве благодарности мы отключим Вам всю рекламу на сайте (укажите свой ник в строку Ваше имя)!

×
  
Magnet ссылка

Ла-Ла Ленд / La La Land (Дэмьен Шазелл) [2016, мюзикл, драма, мелодрама, BDRip-AVC от R.G.Resident] Дубляж - [Лицензия / iTunes] pb.wtf

Ла-Ла Ленд через торрент pb.wtf

Размер: 2.42 GB | Добавлен: 4 года 3 мес. назад | Торрент скачан:120 раз
Скачать  

20-04-2017 01:42 Ла-Ла Ленд Скачать торрент  

Ла-Ла Ленд / La La Land
««Бесстрашным мечтателям посвящается…»»

Год выпуска: 2016
Страна: США, Гонконг
Жанр: мюзикл, драма, мелодрама, комедия, музыка
Продолжительность: 02:07:48
Перевод: Дубляж - [Лицензия / iTunes]
Субтитры: русские (forced), русские (full), английские (full), английские (SDH)
Режиссер: Дэмьен Шазелл
В ролях:

Райан Гослинг (Sebastian), Эмма Стоун (Mia), Джон Ледженд (Keith), Дж.К. Симмонс (Bill), Розмари ДеУитт (Laura), Финн Уиттрок (Greg), Калли Эрнандес (Tracy), Соноя Мидзуно (Caitlin), Джессика Рот (Alexis), Том Эверетт Скотт (David), Джошуа Пенс (Josh), Эмии Конн (Famous Actress)
Описание:
Это история любви старлетки, которая между прослушиваниями подает кофе состоявшимся кинозвездам, и фанатичного джазового музыканта, вынужденного подрабатывать в заштатных барах. Но пришедший к влюбленным успех начинает подтачивать их отношения.
Мировая премьера: 31 августа 2016

MPAA: PG-13 - Детям до 13 лет просмотр не желателен
Качество: BDRip-AVC Rip by
Формат: MKV
Видео: AVC, 1024x402 (2.547), 1876 kbps, 23,976 fps, 0,190 bpp
Аудио №1: русский / AC3 / 5.1 / 48 kHz / 384 kbps /
Аудио №2: английский / AC3 / 5.1 / 48 kHz / 448 kbps /
General
Unique ID : 201454137344319607377662640521609462561 (0x978EA7D255D80F8B8B0A9A6326F3C321)
Complete name : D:\download\La.La.Land.2016.BDRip-AVC by schultz R.G.Resident.mkv
Format : Matroska
Format version : Version 4 / Version 2
File size : 2.42 GiB
Duration : 2 h 7 min
Overall bit rate : 2 708 kb/s
Encoded date : UTC 2017-04-20 01:22:08
Writing application : mkvmerge v8.9.0 ('Father Daughter') 64bit
Writing library : libebml v1.3.3 + libmatroska v1.4.4

Video
ID : 1
Format : AVC
Format/Info : Advanced Video Codec
Format profile : High@L4.1
Format settings, CABAC : Yes
Format settings, ReFrames : 12 frames
Codec ID : V_MPEG4/ISO/AVC
Duration : 2 h 7 min
Bit rate : 1 876 kb/s
Width : 1 024 pixels
Height : 402 pixels
Display aspect ratio : 2.547
Frame rate mode : Constant
Frame rate : 23.976 (23976/1000) FPS
Color space : YUV
Chroma subsampling : 4:2:0
Bit depth : 8 bits
Scan type : Progressive
Bits/(Pixel*Frame) : 0.190
Stream size : 1.67 GiB (69%)
Writing library : x264 core 146 r2538 121396c
Encoding settings : cabac=1 / ref=12 / deblock=1:-3:-3 / analyse=0x3:0x113 / me=umh / subme=11 / psy=1 / psy_rd=1.00:0.00 / mixed_ref=1 / me_range=48 / chroma_me=1 / trellis=2 / 8x8dct=1 / cqm=0 / deadzone=21,11 / fast_pskip=0 / chroma_qp_offset=-2 / threads=12 / lookahead_threads=3 / sliced_threads=0 / nr=0 / decimate=0 / interlaced=0 / bluray_compat=0 / constrained_intra=0 / bframes=11 / b_pyramid=2 / b_adapt=2 / b_bias=0 / direct=3 / weightb=1 / open_gop=0 / weightp=2 / keyint=240 / keyint_min=23 / scenecut=40 / intra_refresh=0 / rc_lookahead=40 / rc=2pass / mbtree=1 / bitrate=1876 / ratetol=1.0 / qcomp=0.60 / qpmin=0 / qpmax=69 / qpstep=4 / cplxblur=20.0 / qblur=0.5 / vbv_maxrate=50000 / vbv_bufsize=62500 / nal_hrd=none / filler=0 / ip_ratio=1.40 / aq=1:1.00
Language : English
Default : Yes
Forced : No

Audio #1
ID : 2
Format : AC-3
Format/Info : Audio Coding 3
Mode extension : CM (complete main)
Format settings, Endianness : Big
Codec ID : A_AC3
Duration : 2 h 7 min
Bit rate mode : Constant
Bit rate : 384 kb/s
Channel(s) : 6 channels
Channel positions : Front: L C R, Side: L R, LFE
Sampling rate : 48.0 kHz
Frame rate : 31.250 FPS (1536 spf)
Compression mode : Lossy
Stream size : 351 MiB (14%)
Language : Russian
Default : Yes
Forced : No

Audio #2
ID : 3
Format : AC-3
Format/Info : Audio Coding 3
Mode extension : CM (complete main)
Format settings, Endianness : Big
Codec ID : A_AC3
Duration : 2 h 7 min
Bit rate mode : Constant
Bit rate : 448 kb/s
Channel(s) : 6 channels
Channel positions : Front: L C R, Side: L R, LFE
Sampling rate : 48.0 kHz
Frame rate : 31.250 FPS (1536 spf)
Compression mode : Lossy
Stream size : 410 MiB (17%)
Language : English
Default : No
Forced : No

Text #1
ID : 4
Format : UTF-8
Codec ID : S_TEXT/UTF8
Codec ID/Info : UTF-8 Plain Text
Duration : 1 h 45 min
Bit rate : 14 b/s
Count of elements : 251
Stream size : 11.4 KiB (0%)
Title : forced
Language : Russian
Default : Yes
Forced : No

Text #2
ID : 5
Format : UTF-8
Codec ID : S_TEXT/UTF8
Codec ID/Info : UTF-8 Plain Text
Duration : 1 h 59 min
Bit rate : 67 b/s
Count of elements : 1028
Stream size : 59.3 KiB (0%)
Title : full
Language : Russian
Default : No
Forced : No

Text #3
ID : 6
Format : UTF-8
Codec ID : S_TEXT/UTF8
Codec ID/Info : UTF-8 Plain Text
Duration : 1 h 59 min
Bit rate : 36 b/s
Count of elements : 1091
Stream size : 31.6 KiB (0%)
Title : full
Language : English
Default : No
Forced : No

Text #4
ID : 7
Format : UTF-8
Codec ID : S_TEXT/UTF8
Codec ID/Info : UTF-8 Plain Text
Duration : 1 h 59 min
Bit rate : 55 b/s
Count of elements : 1357
Stream size : 48.4 KiB (0%)
Title : SDH
Language : English
Default : No
Forced : No

Menu
00:00:00.000 : en:00:00:00.000
00:07:06.926 : en:00:07:06.926
00:17:30.883 : en:00:17:30.883
00:26:05.856 : en:00:26:05.856
00:31:14.039 : en:00:31:14.039
00:39:29.075 : en:00:39:29.075
00:46:17.566 : en:00:46:17.566
00:52:11.170 : en:00:52:11.170
00:58:50.360 : en:00:58:50.360
01:05:58.580 : en:01:05:58.580
01:13:01.293 : en:01:13:01.293
01:24:16.301 : en:01:24:16.301
01:31:50.880 : en:01:31:50.880
01:41:10.981 : en:01:41:10.981
01:46:07.611 : en:01:46:07.611
01:56:19.598 : en:01:56:19.598

pb.wtf



Скачать Ла-Ла Ленд через торрент http://i77.fastpic.ru/big/2016/0417/a7/808a646271c761f7c7d87df3d366b3a7.png Скачать фильм Ла-Ла Ленд через торрент бесплантно в хорошем качестве Описание: Это история любви старлетки, которая между прослушиваниями подает кофе состоявшимся кинозвездам, и фанатичного джазового ... 8.2 10 5
Info! Золотая раздача, скачанное не засчитывается.
Торрент: Зарегистрирован [2017-04-20 01:42] · скачан: 120 раз
Статус: √ проверено
Размер: 2.42 GB
Как cкачать? Как скачать Ла-Ла Ленд через торрент | UTorrent

% Раздел Тема Автор DL S | L
Ultra HD (UHD: 2K, 4K, 8K) — видео сверхвысокой чёткости [ 103.76 GB ] Ла-Ла Ленд / La La Land [2016 мюзикл UHD Blu-Ray 2160p] sheker187 Скачать
1 | 0
Ultra HD (UHD: 2K, 4K, 8K) — видео сверхвысокой чёткости [ 45.75 GB ] Ла-Ла Ленд / La La Land [2016 мюзикл UHD BDRip 2160p] sheker187 Скачать
1 | 0
Фильмы 2016 [DVDrip, WEB-DLRip, HDrip] (DUB, MVO) [ 1.46 GB ] Ла-Ла Ленд / La La Land [2016 мюзикл BDRip] [] Twi7ter Скачать
2 | 0
Фильмы 2016 [DVDrip, WEB-DLRip, HDrip] (DUB, MVO) [ 2.18 GB ] Ла-Ла Ленд / La La Land [2016 мюзикл BDRip] [] Twi7ter Скачать
1 | 0
Ultra HD (UHD: 2K, 4K, 8K) — видео сверхвысокой чёткости [ 71.85 GB ] Ла-Ла Ленд / La La Land [2016 мюзикл музыка UHD BDRemux 2160p] DUB [] bober100 Скачать
1 | 0
Зарубежные сериалы [ 6.66 GB ] Мгла / Туман / The Mist / Сезон: 1 / Серии 1-10 из 10 [2017 WEBRip-AVC WEB-DLRip-AVC] MVO [BaibaKo] GEKADOL Скачать
1 | 0
Фильмы без перевода [ 28.74 GB ] Ла-Ла Ленд / La La Land [2016 мюзикл BD Remux] [Оригинал-ENG] smaster Скачать
1 | 0

28-11-2019 20:33  

Отключить всю рекламу на сайте

    Дорогой пользователь! Огромная просьба, поблагодарите релизера, оцените раздачу и оставьте свои комментарий, если Вы скачали Ла-Ла Ленд через торрент бесплатно! Внесите свою лепту в развитие PiratBit!
    Комментировать посты могут только пользователи прошедшие не сложную регистрацию
    Показать сообщения:    

    Ла-Ла Ленд через торрент
    Скачать бесплатно Ла-Ла Ленд
    Ла-Ла Ленд скачать торрент
    Ла-Ла Ленд смотреть онлайн
    Cкачать фильм Ла-Ла Ленд бесплатно
    Ла-Ла Ленд скачать торрент в хорошем качестве
    Ла-Ла Ленд смотреть онлайн бесплатно в хорошем качестве


    Вы не можете начинать темы
    Вы не можете отвечать на сообщения
    Вы не можете редактировать свои сообщения
    Вы не можете удалять свои сообщения
    Вы не можете голосовать в опросах
    Вы не можете прикреплять файлы к сообщениям
    Вы можете скачивать файлы