Ссылка на приватное зеркало нашего сайта всего за 1$. Внимание количество ограничено!!!

2 сезон

iTunes

1 сезон

1

iTunes

iTunes

iTunes

1 сезон

RePack

30

ИГРА 18+

pack

ВАЖНО

!!Акция!!

Alien_RageХит недели

RePack

MK11
pack

Забери бонус

RePack

jed

!!Акция!!

Alien_Rage

RePack

fifa19

RePack

Assassins Creed: Odyssey

RePack

NEED FOR SPEED™ PAYBACK

4 сезон

9 сезон

Бесстыжие 9 сезон

Все сериалы

все сериалы на PB.wtf

RePack

FAR CRY 5
  

Ценный груз / Precious Cargo (Макс Адамс) [2016, Боевик, триллер, драма, криминал, BDRip 1080p] DUB [iTunes] pb.wtf

Ценный груз через торрент pb.wtf

Размер: 8.1 GB | Добавлен: 3 года 6 мес. назад | Торрент скачан:246 раз
Скачать  

20-04-2017 04:53 Ценный груз Скачать торрент  

Ценный груз / Precious Cargo
Год выпуска: 2016
Страна: Канада
Жанр: Боевик, триллер, драма, криминал
Продолжительность: 01:29:56
Перевод: Дубляж - [Tunes]
Субтитры: английские

Режиссер: Макс Адамс

rating

В ролях:

Брюс Уиллис, Марк-Пол Госселаар, Клер Форлани, Джон Бразертон, Дженна Б. Келли, Николас М. Лоб, Лидия Халл, Дэниэл Бернхард, Эшли Кирк, Тайлер Джон Олсон

Описание:

Профессиональная воровка Карен (Форлани) всегда ответственно подходит к каждому новому делу, но все на свете невозможно предугадать, и в этот раз ее план не сработал. А все потому, что она решила кинуть своего покровителя, жестокого криминального босса Эдди (Уиллис). За непослушание и обман, он требует всю долю, иначе верная смерть. Теперь ей придется выполнить задание для Эдди, чтобы расплатится за содеянное. Для этого она обращается к своему бывшему бойфренду, который должен помочь совершить ограбление грузовика перевозящего драгоценности. Это очень опасная миссия, в таком деле не должно быть не единой осечки, но всю ли правду рассказала Карен своей новой команде? Знают ли они в какую игру они ввязываются?

Качество: BDRip 1080p
Формат: MKV
Видео кодек: H.264
Аудио кодек: AC3/DTS

Видео: 1920x800p (2,40:1), 23.976 fps, AVC MPEG-4 (x264), High@L4.1, ~11,000 Мбит/сек, 0.299 bit/pixel
Аудио#1: Русский: 48 kHz/16 bits, AC3 Dolby Digital, 3/2 (L,C,R,l,r) + LFE ch, ~384 kbps avg [Профессиональный (полное дублирование), iTunes]
Аудио#2: Английский: 48 kHz/16 bits, DTS, 3/2 (L,C,R,l,r) + LFE ch, ~1510 kbps avg [Оригинал]
скриншот   скриншот   скриншот   скриншот  

Общее
Уникальный идентификатор : 241525545961751661536033830547550120796 (0xB5B420CD24662DD89FB7EBC4ECC82B5C)
Полное имя : E:\Закачка-2\Precious.Cargo.2016.D.BDRip.1080p.mkv
Формат : Matroska
Версия формата : Version 2
Размер файла : 8,10 Гбайт
Продолжительность : 1 ч. 29 м.
Общий поток : 12,9 Мбит/сек
Дата кодирования : UTC 2017-04-19 20:42:35
Программа кодирования : mkvmerge v7.8.0 ('River Man') 32bit built on Apr 3 2015 12:11:22
Библиотека кодирования : libebml v1.3.1 + libmatroska v1.4.2

Видео
Идентификатор : 1
Формат : AVC
Формат/Информация : Advanced Video Codec
Профиль формата : High@L4.1
Параметр CABAC формата : Да
Параметр ReFrames формата : 5 кадров
Идентификатор кодека : V_MPEG4/ISO/AVC
Продолжительность : 1 ч. 29 м.
Битрейт : 11,0 Мбит/сек
Ширина : 1920 пикселей
Высота : 800 пикселей
Соотношение сторон : 2,40:1
Режим частоты кадров : Постоянный
Частота кадров : 23,976 (24000/1001) кадра/сек
Цветовое пространство : YUV
Субдискретизация насыщенности : 4:2:0
Битовая глубина : 8 бит
Тип развёртки : Прогрессивная
Бит/(Пиксели*Кадры) : 0.299
Размер потока : 6,75 Гбайт (83%)
Библиотека кодирования : x264 core 142 r2431+42 c69a006 tMod [8-bit@all X86_64]
Настройки программы : cabac=1 / ref=5 / deblock=1:-3:-3 / analyse=0x3:0x133 / me=umh / subme=11 / psy=1 / fade_compensate=0.00 / psy_rd=0.90:0.00 / mixed_ref=1 / me_range=32 / chroma_me=1 / trellis=2 / 8x8dct=1 / cqm=0 / deadzone=21,11 / fast_pskip=0 / chroma_qp_offset=-2 / threads=12 / lookahead_threads=2 / sliced_threads=0 / nr=0 / decimate=0 / interlaced=0 / bluray_compat=0 / constrained_intra=0 / fgo=0 / bframes=8 / b_pyramid=2 / b_adapt=2 / b_bias=0 / direct=3 / weightb=1 / open_gop=0 / weightp=2 / keyint=240 / keyint_min=23 / scenecut=40 / intra_refresh=0 / rc_lookahead=60 / rc=2pass / mbtree=0 / bitrate=11000 / ratetol=1.0 / qcomp=0.60 / qpmin=0:0:0 / qpmax=69:69:69 / qpstep=4 / cplxblur=20.0 / qblur=0.5 / vbv_maxrate=40000 / vbv_bufsize=30000 / nal_hrd=none / filler=0 / ip_ratio=1.40 / pb_ratio=1.30 / aq=1:0.90 / aq-sensitivity=10.00 / aq-factor=1.00:1.00:1.00 / aq2=0 / aq3=0
Язык : English
Default : Да
Forced : Нет

Аудио #1
Идентификатор : 2
Формат : AC-3
Формат/Информация : Audio Coding 3
Параметр Endianness формата : Big
Идентификатор кодека : A_AC3
Продолжительность : 1 ч. 29 м.
Вид битрейта : Постоянный
Битрейт : 384 Кбит/сек
Каналы : 6 каналов
Расположение каналов : Front: L C R, Side: L R, LFE
Частота : 48,0 КГц
Частота кадров : 31,250 кадров/сек (1536 spf)
Битовая глубина : 16 бит
Метод сжатия : С потерями
Размер потока : 247 Мбайт (3%)
Заголовок : iTunes
Язык : Russian
ServiceKind/String : Complete Main
Default : Да
Forced : Нет

Аудио #2
Идентификатор : 3
Формат : DTS
Формат/Информация : Digital Theater Systems
Режим : 16
Параметр Endianness формата : Big
Идентификатор кодека : A_DTS
Продолжительность : 1 ч. 29 м.
Вид битрейта : Постоянный
Битрейт : 1509 Кбит/сек
Каналы : 6 каналов
Расположение каналов : Front: L C R, Side: L R, LFE
Частота : 48,0 КГц
Частота кадров : 93,750 кадра/сек (512 spf)
Битовая глубина : 24 бит
Метод сжатия : С потерями
Размер потока : 971 Мбайт (12%)
Язык : English
Default : Нет
Forced : Нет

Текст #1
Идентификатор : 4
Формат : UTF-8
Идентификатор кодека : S_TEXT/UTF8
Идентификатор кодека/Информация : UTF-8 Plain Text
Язык : English
Default : Нет
Forced : Нет

Текст #2
Идентификатор : 5
Формат : UTF-8
Идентификатор кодека : S_TEXT/UTF8
Идентификатор кодека/Информация : UTF-8 Plain Text
Язык : English
Default : Нет
Forced : Нет

Меню
00:00:00.000 : en:00:00:00.000
00:08:58.621 : en:00:08:58.621
00:12:51.938 : en:00:12:51.938
00:16:55.848 : en:00:16:55.848
00:25:43.208 : en:00:25:43.208
00:32:43.128 : en:00:32:43.128
00:36:33.900 : en:00:36:33.900
00:42:13.197 : en:00:42:13.197
00:46:02.551 : en:00:46:02.551
00:52:34.360 : en:00:52:34.360
00:58:47.107 : en:00:58:47.107
01:02:41.466 : en:01:02:41.466
01:06:36.576 : en:01:06:36.576
01:08:36.696 : en:01:08:36.696
01:12:46.904 : en:01:12:46.904
01:21:35.057 : en:01:21:35.057



pb.wtf



Скачать Ценный груз через торрент http://s010.radikal.ru/i312/1704/85/f491352428d7.jpg Скачать фильм Ценный груз через торрент бесплантно в хорошем качестве Описание: Профессиональная воровка Карен (Форлани) всегда ответственно подходит к каждому новому делу, но все на свете невозможно ... 9.9 10 9
Торрент: Зарегистрирован [2017-04-20 04:53] · скачан: 246 раз
Статус: √ проверено
Размер: 8.1 GB
Как cкачать? Как скачать Ценный груз через торрент | qTorrent

% Раздел Тема Автор DL S | L
Фильмы [HD 720p, 1080p] (Хороший звук DUB, MVO) [ 4.2 GB ] Ценный груз / Precious Cargo [2016 BDRip 720p] bober100 Скачать
1 | 0
Фильмы 2016 [DVDrip, WEB-DLRip, HDrip] (DUB, MVO) [ 700 MB ] Ценный груз / Precious Cargo [2016 HDRip] Sherif Скачать
1 | 0
Фильмы 2016 [DVDrip, WEB-DLRip, HDrip] (DUB, MVO) [ 1.42 GB ] Ценный груз / Precious Cargo [2016 HDRip] bober100 Скачать
1 | 0


Последний раз редактировалось: bober100 (2017-04-20 07:05), всего редактировалось 1 раз

28-11-2019 20:33  

Отключить всю рекламу на сайте

20-04-2017 05:13 Ценный груз Скачать торрент  

Как фильм,стоит смотреть?pb.wtf



20-04-2017 06:49 Ценный груз Скачать торрент  

Tipok_dv писал(а):

Как фильм,стоит смотреть?

Тоже интересно знать,а то последние фильмы с Брюсом это что тоpb.wtf



17-05-2017 11:32 Ценный груз Скачать торрент  

а с русскими субтитрами будетpb.wtf



    Дорогой пользователь! Огромная просьба, поблагодарите релизера, оцените раздачу и оставьте свои комментарий, если Вы скачали Ценный груз через торрент бесплатно! Внесите свою лепту в развитие PiratBit!
    Комментировать посты могут только пользователи прошедшие не сложную регистрацию
    Показать сообщения:    

    Ценный груз через торрент
    Скачать бесплатно Ценный груз
    Ценный груз скачать торрент
    Ценный груз смотреть онлайн
    Cкачать фильм Ценный груз бесплатно
    Ценный груз скачать торрент в хорошем качестве
    Ценный груз смотреть онлайн бесплатно в хорошем качестве


    Вы не можете начинать темы
    Вы не можете отвечать на сообщения
    Вы не можете редактировать свои сообщения
    Вы не можете удалять свои сообщения
    Вы не можете голосовать в опросах
    Вы не можете прикреплять файлы к сообщениям
    Вы можете скачивать файлы